Классический форум-трекер
canvas not supported
Нас вместе: 4 077 858

Дикие народы Курдистана / Durchs wilde Kurdistan (1965) BDRip [H.264]


 
 
RSS
Начать новую тему   Ответить на тему    Торрент-трекер NNM-Club -> Классика кино и Старые фильмы до 90-х -> Зарубежная Классика (HD*Rip/LQ, DVDRip, SATRip, VHSRip)
Автор Сообщение
охрана ®
RG Releasers
 
Стаж: 8 лет 6 мес.
Сообщений: 3455
Ratio: 3982,373
Поблагодарили: 480078
100%
Откуда: СССР
ussr.gif
Дикие народы Курдистана / Durchs wilde Kurdistan (1965) BDRip [H.264]
Год выпуска: 1965
Жанр: Приключения
Производство: Испания, Германия (ФРГ) / Balczar Producciones Cinematogrficas S.A., CCC Filmkunst GmbH

Описание фильма:
Властолюбивый магараджа из Моссула похищает сына курдского шейха Мухаммеда. На поиски мальчика отправляются любитель приключений Кара Бен Немши и его друг Хадши Халиф Омар. По дороге они встречают странноватого лорда Линдсея и его слугу.

Режиссер: Франц Йозеф Готлиб
Сценарий: Карл Май, Франц Йозеф Готлиб
Продюсер: Артур Браунер, Эберхард Майхснер
Актеры: Лекс Баркер, Мари Верзини, Ральф Вольтер, Джордже Ненадович, Густаво Рохо, Вернер Петерс, Чарльз Фоусет, Вольфганг Лукши, Глория Камара, Фернандо Санчо

Продолжительность: 01:42:41
Качество видео: BDRip
Перевод: Многоголосый закадровый
Субтитры: Отсутствуют



Дата мировой премьеры: 28 сентября 1965

Видеокодек: MPEG-4 AVC/H.264
Битрейт видео: ~2196 Кбит/сек
Размер кадра: 1024x432
Аудио 1: Русский, AC3 2.0, 192 Кбит/сек, 48 kHz (Многоголосый закадровый)
Аудио 2: Немецкий, AC3 2.0, 192 Кбит/сек, 48 kHz (Оригинал)
Сэмпл: Скачать
General
Unique ID : 171584932748344761879462399652503153769 (0x81160E55EC1DE0E6A2EAD2AE79B2EC69)
Complete name : F:\Downloads\Дикие народы Курдистана.mkv
Format : Matroska
Format version : Version 4 / Version 2
File size : 1.85 GiB
Duration : 1h 42mn
Overall bit rate : 2 582 Kbps
Encoded date : UTC 2014-12-27 06:13:25
Writing application : mkvmerge v7.0.0 ('Where We Going') 32bit built on Jun 9 2014 15:08:34
Writing library : libebml v1.3.0 + libmatroska v1.4.1
DURATION : 01:42:41.312000000
NUMBER_OF_FRAMES : 192541
NUMBER_OF_BYTES : 147871488
_STATISTICS_WRITING_APP : mkvmerge v7.0.0 ('Where We Going') 32bit built on Jun 9 2014 15:08:34
_STATISTICS_WRITING_DATE_UTC : 2014-12-27 06:13:25
_STATISTICS_TAGS : BPS DURATION NUMBER_OF_FRAMES NUMBER_OF_BYTES

Video
ID : 1
Format : AVC
Format/Info : Advanced Video Codec
Format profile : High@L4.1
Format settings, CABAC : Yes
Format settings, ReFrames : 8 frames
Codec ID : V_MPEG4/ISO/AVC
Duration : 1h 42mn
Bit rate : 2 196 Kbps
Width : 1 024 pixels
Height : 432 pixels
Display aspect ratio : 2.40:1
Frame rate mode : Constant
Frame rate : 23.976 fps
Color space : YUV
Chroma subsampling : 4:2:0
Bit depth : 8 bits
Scan type : Progressive
Bits/(Pixel*Frame) : 0.207
Stream size : 1.54 GiB (83%)
Title : Durchs wilde Kurdistan
Writing library : x264 core 125 r2208 d9d2288
Encoding settings : cabac=1 / ref=8 / deblock=1:-1:-1 / analyse=0x3:0x133 / me=umh / subme=9 / psy=1 / psy_rd=1.00:0.10 / mixed_ref=1 / me_range=32 / chroma_me=1 / trellis=2 / 8x8dct=1 / cqm=0 / deadzone=21,11 / fast_pskip=0 / chroma_qp_offset=-3 / threads=6 / lookahead_threads=1 / sliced_threads=0 / nr=0 / decimate=1 / interlaced=0 / bluray_compat=0 / constrained_intra=0 / bframes=3 / b_pyramid=2 / b_adapt=2 / b_bias=0 / direct=3 / weightb=1 / open_gop=0 / weightp=2 / keyint=250 / keyint_min=25 / scenecut=40 / intra_refresh=0 / rc_lookahead=60 / rc=2pass / mbtree=1 / bitrate=2196 / ratetol=1.0 / qcomp=0.60 / qpmin=0 / qpmax=69 / qpstep=4 / cplxblur=20.0 / qblur=0.5 / ip_ratio=1.40 / aq=1:1.00
Language : German
Default : Yes
Forced : No

Audio #1
ID : 2
Format : AC-3
Format/Info : Audio Coding 3
Format profile : Dolby Digital
Mode extension : CM (complete main)
Format settings, Endianness : Big
Codec ID : A_AC3
Duration : 1h 42mn
Bit rate mode : Constant
Bit rate : 192 Kbps
Channel(s) : 2 channels
Channel positions : Front: L R
Sampling rate : 48.0 KHz
Bit depth : 16 bits
Compression mode : Lossy
Stream size : 141 MiB (7%)
Title : Многоголосый закадровый
Language : Russian
Default : Yes
Forced : No

Audio #2
ID : 3
Format : AC-3
Format/Info : Audio Coding 3
Mode extension : CM (complete main)
Format settings, Endianness : Big
Codec ID : A_AC3
Duration : 1h 42mn
Bit rate mode : Constant
Bit rate : 192 Kbps
Channel(s) : 2 channels
Channel positions : Front: L R
Sampling rate : 48.0 KHz
Bit depth : 16 bits
Compression mode : Lossy
Stream size : 141 MiB (7%)
Title : Немецкий 2.0 / 48 kHz / 192 kbps
Language : German
Default : No
Forced : No
Скриншоты:

Время раздачи: с 14:00 до 02:00 по Москве (выходные круглосуточно), до 10 скачавших
[NNM-Club.me]_Dikie narodyi Kurdistana.mkv.torrent
 Торрент: Платиновая раздача  Зарегистрирован
 
Скачать


Примагнититься
 Зарегистрирован:   27 Дек 2014 14:20:33
 Размер:   1,85 GB  (
 Рейтинг:   4,7 (Голосов: 31)
 Поблагодарили:   116
 Проверка:   Оформление проверено модератором 28 Дек 2014 10:21:57
Как cкачать  ·  Как раздать  ·  Правильно оформить  ·  Поднять ратио!  
Trixxxy
Стаж: 5 лет 8 мес.
Сообщений: 1442
Ratio: 7,883
100%
papuanewguinea.gif
Durchs wilde Kurdistan=Через дебри Курдистана
Aleiv
Только чтение
Стаж: 8 лет 3 мес.
Сообщений: 4647
Ratio: 96,639
100%
pirates.png
Wild peoples of Kurdistan
Trixxxy
Стаж: 5 лет 8 мес.
Сообщений: 1442
Ratio: 7,883
100%
papuanewguinea.gif
Ха-ха!
IMDB:Wild Kurdistan (1965)
"Durchs wilde Kurdistan" (original title)
Vugluscr
Стаж: 9 лет 6 мес.
Сообщений: 665
Ratio: 2,113
100%
Aleiv писал(а): Перейти к сообщению
Wild peoples of Kurdistan

Да ну! :eek7:
Показать сообщения:   
Начать новую тему   Ответить на тему    Торрент-трекер NNM-Club -> Классика кино и Старые фильмы до 90-х -> Зарубежная Классика (HD*Rip/LQ, DVDRip, SATRip, VHSRip) Часовой пояс: GMT + 3
Страница 1 из 1