Классический форум-трекер
canvas not supported
Нас вместе: 4 077 958

Великий мышиный сыщик / The Great Mouse Detective (1986) [1080p] BDRemux


 
 
RSS
Начать новую тему   Ответить на тему    Торрент-трекер NNM-Club -> Архив торрентов -> Архив Мультфильмов
Автор Сообщение
Mnogolik ®
Стаж: 7 лет 11 мес.
Сообщений: 67
Ratio: 234,142
Раздал: 161,9 TB
Поблагодарили: 4967
100%
Откуда: Екатеринбург
russia.gif
Великий мышиный сыщик / The Great Mouse Detective (1986) BDRemux
Русское название: Великий мышиный сыщик
Оригинальное название: The Great Mouse Detective
Год выпуска: 1986
Жанр: Приключения, Детский, Рисованная анимация

Описание:
Оливия обращается за помощью к Базилю с Бэйкер-стрит. Она просит найти исчезнувшего отца. Базиль, его друг и соратник доктор Доусон, а также пес Тоби берутся за расследование. Следы ведут к профессору Ратигану, крупному преступнику, которому Базилю и прийдется противостоять...

Режиссер: Рон Клементс, Барни Мэттинсон, Дэвид Микенер, Джон Маскер
Персонажи: Винсент Прайс, Бэрри Ингэм, Вэл Бэттин, Сюзанна Полащек, Кэнди Кандидо, Диана Чесни, Ив Бреннер, Алан Янг, Лори Майн, Шэйни Уоллис



Продолжительность: 01:14:17
Перевод: Дублированный, профессиональный многоголосый, авторский одноголосый
Автор перевода: Михалев
Релиз группа: HDTRACKER
Язык субтитров: English

Видеокодек: MPEG-4 AVC/H.264
Битрейт видео: ~28192
Размер кадра: 1920x1080
Качество видео: BDRemux
Video: MPEG-4 AVC Video / 28192 kbps / 1080p / 23,976 fps / 16:9 / High Profile 4.1
Audio#1: English / DTS-HD Master Audio / 5.1 / 48 kHz / 4306 kbps / 24-bit (DTS Core: 5.1 / 48 kHz / 1509 kbps / 24-bit)
Audio#2: Russian / Dolby Digital Audio / 2.0 / 48 kHz / 192 kbps (Дублированный)
Audio#3: Russian / Dolby Digital Audio / 2.0 / 48 kHz / 192 kbps (Многоголосый)
Audio#4: Russian / Dolby Digital Audio / 5.1 / 48 kHz / 448 kbps (Михалев)
Subtitle: English / 36,338 kbps
Код:
D:\Видео\Мультфильмы\The.Great.Mouse.Detective.1986\BDMV\STREAM\00000.m2ts
  General #1
    ID : 1 (0x1)
    Complete name : D:\Видео\Мультфильмы\The.Great.Mouse.Detective.1986\BDMV\STREAM\00000.m2ts
    Format : BDAV
    Format/Info : Blu-ray Video
    File size : 18.3 GiB
    Duration : 1h 14mn
    Overall bit rate mode : Variable
    Overall bit rate : 35.2 Mbps
    Maximum Overall bit rate : 35.5 Mbps
  Video #4113
    ID : 4113 (0x1011)
    Menu ID : 1 (0x1)
    Format : AVC
    Format/Info : Advanced Video Codec
    Format profile : High@L4.1
    Format settings, CABAC : Yes
    Format settings, ReFrames : 4 frames
    Codec ID : 27
    Duration : 1h 14mn
    Bit rate mode : Variable
    Bit rate : 31.4 Mbps
    Maximum bit rate : 36.0 Mbps
    Width : 1 920 pixels
    Height : 1 080 pixels
    Display aspect ratio : 16:9
    Frame rate : 23.976 fps
    Standard : NTSC
    Color space : YUV
    Chroma subsampling : 4:2:0
    Bit depth : 8 bits
    Scan type : Progressive
    Bits/(Pixel*Frame) : 0.631
    Stream size : 16.3 GiB (89%)
    Color primaries : BT.709-5, BT.1361, IEC 61966-2-4, SMPTE RP177
    Transfer characteristics : BT.709-5, BT.1361
    Matrix coefficients : BT.709-5, BT.1361, IEC 61966-2-4 709, SMPTE RP177
  Audio #4352
    ID : 4352 (0x1100)
    Menu ID : 1 (0x1)
    Format : DTS
    Format/Info : Digital Theater Systems
    Format profile : MA / Core
    Muxing mode : Stream extension
    Codec ID : 134
    Duration : 1h 14mn
    Bit rate mode : Variable
    Bit rate : 1 585 Kbps / 1 510 Kbps
    Channel(s) : 6 channels
    Channel positions : Front: L C R, Side: L R, LFE
    Sampling rate : 48.0 KHz
    Bit depth : 24 bits
    Compression mode : Lossless / Lossy
    Language : English
  Audio #4353
    ID : 4353 (0x1101)
    Menu ID : 1 (0x1)
    Format : AC-3
    Format/Info : Audio Coding 3
    Mode extension : CM (complete main)
    Format settings, Endianness : Big
    Codec ID : 129
    Duration : 1h 14mn
    Bit rate mode : Constant
    Bit rate : 192 Kbps
    Channel(s) : 2 channels
    Channel positions : Front: L R
    Sampling rate : 48.0 KHz
    Bit depth : 16 bits
    Compression mode : Lossy
    Stream size : 102 MiB (1%)
    Language : Russian
  Audio #4354
    ID : 4354 (0x1102)
    Menu ID : 1 (0x1)
    Format : AC-3
    Format/Info : Audio Coding 3
    Mode extension : CM (complete main)
    Format settings, Endianness : Big
    Codec ID : 129
    Duration : 1h 14mn
    Bit rate mode : Constant
    Bit rate : 192 Kbps
    Channel(s) : 2 channels
    Channel positions : Front: L R
    Sampling rate : 48.0 KHz
    Bit depth : 16 bits
    Compression mode : Lossy
    Stream size : 102 MiB (1%)
    Language : Russian
  Audio #4355
    ID : 4355 (0x1103)
    Menu ID : 1 (0x1)
    Format : AC-3
    Format/Info : Audio Coding 3
    Mode extension : CM (complete main)
    Format settings, Endianness : Big
    Codec ID : 129
    Duration : 1h 14mn
    Bit rate mode : Constant
    Bit rate : 448 Kbps
    Channel(s) : 6 channels
    Channel positions : Front: L C R, Side: L R, LFE
    Sampling rate : 48.0 KHz
    Bit depth : 16 bits
    Compression mode : Lossy
    Stream size : 238 MiB (1%)
    Language : Russian
  Text #4608
    ID : 4608 (0x1200)
    Menu ID : 1 (0x1)
    Format : PGS
    Codec ID : 144
    Language : English
Великий сыщик с Бейкер-стрит

Он высок по стандартным меркам, умеет играть на скрипке, склонен к меланхолии, любит создавать новые образы, любит пампушки и мастерски владеет своим ремеслом. Нет, он не Шерлок Холмс, он — Бэзил, Великий Бэзил с Бейкер-стрит. Любая мышь в городе знает: случилась беда — бегом к нему.

Вот и малышка Оливия, у которой похитили отца отправилась прямиком к нему. Но куда же мы без доктора Уот…, простите, без доктора Доусона? И вот перед нами предстает толстенький, воспитанный и образованный мышь, всегда готовый прийти на помощь и пережить новое приключение в своей жизни… Нельзя забыть и о лапочке Тоби, верного спаниеля, вечного помощника Бэзила в его делах. Итак, команда в сборе, отправляемся в захватывающее приключение, где главным соперником будут профессор Ратиган, гений злодейства, его любимая, ммм, кошечка и одноногий летучий мышь Фиджеральд, а на кону немного, немало корона Англии.

Многие считают этот мультфильм далеким от шедевра, многие даже не знают о его существовании и я могу сказать лишь одно — вы многое потеряли. Этот мультфильм любим мной с детства, создатели немало потрудились над ним. Тонкий юмор, один Фиджи чего стоит, красивая картинка и атмосфера всего действия надолго оставят положительные эмоции. А главное, научит главному: никогда нельзя сдаваться, даже, если все рассыпается, тебя пытаются съесть, а хозяйка дома пытается выселить из дома за то, что ты прострелил ее любимые подушки.
Скриншоты:


Все раздачи Великий мышиный сыщик на NNM-CLUB

Время раздачи: 24/7 - круглосуточно
[NNM-Club.ru]_The.Great.Mouse.Detective.1986.torrent
 Торрент: Золотая раздача  Зарегистрирован
 
Зарегистрируйтесь и скачайте торрент!
46,5 KB

Примагнититься
 Зарегистрирован:   29 Сен 2012 13:02:24
 Размер:   18,3 GB  (
 Рейтинг:   4,6 (Голосов: 14)
 Поблагодарили:   40
 Проверка:   Оформление проверено модератором 29 Сен 2012 19:16:01
Как cкачать  ·  Как раздать  ·  Правильно оформить  ·  Поднять ратио!  
igor1zz
Стаж: 11 лет 1 мес.
Сообщений: 93
Ratio: 16,478
100%
Откуда: Украина!
ukraine.gif
Mnogolik ® Огромное Вам спасибо за данный релиз!!! =) Да, какие все таки раньше вещи делали.., не то что нынешнее время... :пока:

_________________
ok.
Топик был перенесен из форума Зарубежные Мультфильмы (HD) в форум Архив Мультфильмов

Причина переноса: Seeder last seen: 2014-05-15
almikl
carlsson777
Стаж: 8 лет 9 мес.
Сообщений: 87
Ratio: 2514,666
100%
usa.gif
Превосходный мульт детства с переодом Михалева и в оригинале! Спасибо!
Стадников
Стаж: 7 лет 5 мес.
Сообщений: 11
Ratio: 13,513
0%
жаль что 18 гб.... у меня даже флешки такой нет чтобы на плазме смотреть) обычно такой рип вроде до 14 максимум идет
carlsson777
Стаж: 8 лет 9 мес.
Сообщений: 87
Ratio: 2514,666
100%
usa.gif
Mnogolik
Раздайте плиииззз!!!!
Показать сообщения:   
Начать новую тему   Ответить на тему    Торрент-трекер NNM-Club -> Архив торрентов -> Архив Мультфильмов Часовой пояс: GMT + 3
Страница 1 из 1