Классический форум-трекер
canvas not supported
Нас вместе: 4 077 710

Сибириада (1978) DVDRip (серии 1-4 из 4)


 
 
RSS
Начать новую тему   Ответить на тему    Торрент-трекер NNM-Club -> Классика сериалов и многосерийное кино до 90-х -> Отечественная классика сериалов и старое многосерийное кино до 90-х
Автор Сообщение
~RAT~ ®
Стаж: 12 лет 7 мес.
Сообщений: 736
Ratio: 3,049
Поблагодарили: 1215
100%
Откуда: эти красные муравьи???
micronesia.gif
Сибириада (1978) DVDRip (серии 1-4 из 4)
Производство: СССР, Мосфильм
Жанр: драма, мелодрама, военный, история

Режиссер: Андрей Кончаловский
Актеры: Владимир Самойлов, Наталья Андрейченко, Никита Михалков, Людмила Гурченко, Игорь Охлупин, Виталий Соломин, Сергей Шакуров, Павел Кадочников, Елена Коренева, Евгений Леонов-Гладышев, Константин Григорьев, Евгений Перов, Иван Дмитриев, Михаил Кононов, Евдокия Алексеева

Описание:
"Поэма в шести сказах" - так определили авторы жанр фильма, охватывающего период жизни страны от начала века до семидесятых годов.
Далеко в Сибири спряталась деревня Елань. Издавна здесь живут два семейства, живут и враждуют - богатые Солмины и бедные Устюжины. В 1917 году в России происходит революция. Это событие коренным образом меняет жизненный уклад многих в России. Не остались в стороне и жители деревни Елань. Но зажиточные Соломины не желают признавать новую власть. В борьбе с ними одинок Николай Устюжанин. Пройдет немало времени, прежде чем поколение детей и внуков Соломиных и Устюжаниных прекратит бессмысленную вражду и построит новую жизнь на богатой и плодородной сибирской земле.


Возраст: 12+ (зрителям, достигшим 12 лет)

Продолжительность: 4 х ~01:06:00 (1 h 6 min + 1 h 2 min + 1 h 12 min + 59 min)
Качество видео: DVDRip
Перевод: Оригинальный

Видео: DivX, 720x544, ~2200 Kbps
Аудио: AC3, 2 ch, 192 Kbps
Общее
Полное имя : Sibiriada [nnm-club.me]\Part-2.avi
Формат : AVI
Формат/Информация : Audio Video Interleave
Размер файла : 1,07 Гбайт
Продолжительность : 1 ч. 2 м.
Общий поток : 2456 Кбит/сек
Программа кодирования : VirtualDubMod 1.5.4.1 (build 2178/release)
Библиотека кодирования : VirtualDub build 22945/release

Видео
Идентификатор : 0
Формат : MPEG-4 Visual
Настройки формата : BVOP1
Параметр BVOP формата : 1
Параметр QPel формата : Нет
Параметр GMC формата : Без точки перехода
Параметр матрицы формата : Default (H.263)
Режим смешивания : Сжатый битовый поток
Идентификатор кодека : DX50
Идентификатор кодека/Подсказка : DivX 5
Продолжительность : 1 ч. 2 м.
Битрейт : 2253 Кбит/сек
Ширина : 720 пикселей
Высота : 544 пикселя
Соотношение сторон : 4:3
Частота кадров : 29,970 (30000/1001) кадров/сек
Цветовое пространство : YUV
Субдискретизация насыщенности : 4:2:0
Битовая глубина : 8 бит
Тип развёртки : Прогрессивная
Метод сжатия : С потерями
Бит/(Пиксели*Кадры) : 0.192
Размер потока : 1008 Мбайт (92%)
Библиотека кодирования : DivX 5.2.1 (WaffleDay) (UTC 2004-09-08)

Аудио
Идентификатор : 1
Формат : AC-3
Формат/Информация : Audio Coding 3
Коммерческое название : Dolby Digital
Идентификатор кодека : 2000
Продолжительность : 1 ч. 2 м.
Вид битрейта : Постоянный
Битрейт : 192 Кбит/сек
Каналы : 2 канала
ChannelLayout : L R
Частота : 48,0 КГц
Частота кадров : 31,250 кадров/сек (1536 SPF)
Битовая глубина : 16 бит
Метод сжатия : С потерями
Задержка видео : 13 мс.
Размер потока : 85,9 Мбайт (8%)
Выравнивание : Разделение по промежуткам
Продолжительность промежутка : 33 мс. (1,00 видеокадр)
Время предзагрузки промежутка : 500 мс.
ServiceKind/String : Complete Main
Скриншоты:


Все одноименные релизы в Клубе
Sibiriada [nnm-club.ru].torrent
 Торрент: Платиновая раздача  Зарегистрирован
 
Скачать


Примагнититься
 Зарегистрирован:   09 Сен 2019 13:16:21
 Размер:   4,4 GB  (
 Рейтинг:   4,8 (Голосов: 100)
 Поблагодарили:   419
 Проверка:   Оформление проверено модератором 09 Сен 2019 13:37:30
Как cкачать  ·  Как раздать  ·  Правильно оформить  ·  Поднять ратио!  
SerGorez
Стаж: 12 лет 3 мес.
Сообщений: 60
Ratio: 1,284
40.74%
germany.gif
Отличный фильм! Сейчас таких не делают. А жалко...
dron2040
Стаж: 10 лет 6 мес.
Сообщений: 4
Ratio: 0,766
2.02%
Откуда: омск
russia.gif
я этот фильм смотрел в моём детстве и был в восторге от него! а теперь представилась возможность скачать!
тока концовка там печальная!
tigra_a
Стаж: 9 лет 2 мес.
Сообщений: 3
Ratio: 1,01
100%
russia.gif
Мощный фильм. Но почему ни один Михалков не может без цыганщины???
cctop
Стаж: 5 лет 9 мес.
Сообщений: 87
Ratio: 49,343
100%
krevedko.png
Да, фильм детства по ТВ наверное уже не увидишь. Спасибо.
NorthOn
 
Админ
Стаж: 13 лет 1 мес.
Сообщений: 12752
Ratio: 989,47
Поблагодарили: 14355
100%
nnm-club.gif
Торрент перерегистрирован в рамках акции Включаем DHT в древних раздачах
Теперь вам нужно его скачать и открыть в торрент-клиенте, указав в качестве места сохранения раздаваемый файл или папку.

_________________
Либо я найду путь, либо проложу его...
Показать сообщения:   
Начать новую тему   Ответить на тему    Торрент-трекер NNM-Club -> Классика сериалов и многосерийное кино до 90-х -> Отечественная классика сериалов и старое многосерийное кино до 90-х Часовой пояс: GMT + 3
Страница 1 из 1