Классический форум-трекер
canvas not supported
Нас вместе: 4 077 710

Необыкновенные приключения Карика и Вали (1987) DVDRip (2 серии)


 
 
RSS
Начать новую тему   Ответить на тему    Торрент-трекер NNM-Club -> Видео -> Отечественные Фильмы для детей
Автор Сообщение
W.K. ®
Стаж: 8 лет 6 мес.
Сообщений: 637
Ratio: 283,844
Поблагодарили: 23040
100%
ussr.gif
Необыкновенные приключения Карика и Вали (1987) DVDRip (2 серии)
Жанр: Приключения, Фантастика

Режиссер: Валерий Родченко
Актеры: Алексей Черцов, Анна Дикуль, Василий Ливанов, Ольга Волкова, Михаил Светин, Леонид Ярмольник, Гелена Ивлиева, Аркадий Коваль, Елена Попова, Виктор Михайлов, Анатолий Телков, Владимир Воробьев

Описание :
По одноименной повести Яна Ларри. 2-е серии.
Брат и сестра Карик и Валя попадают в квартиру профессора Енотова. Выпив изобретенный им эликсир, они уменьшаются настолько, что стрекоза уносит их на пруд. И теперь весь привычный мир, в котором они до сих пор жили, приобрел невероятные очертания и особенности...



Релиз от:

Продолжительность: 01:03:17 + 01:03:34
Качество видео: DVDRip

Видеокодек: DivX 5
Битрейт видео: ~2113 Кбит/сек
Размер кадра: 688 x 512
Аудиокодек: AC3 2.0
Битрейт аудио: 192 Кбит/сек
Общее
Полное имя : D:\Downloads\Neobiknovennie_prik_Karika_i_Vali\01_Neobiknovennie_prik_Karika_i_Vali.avi
Формат : AVI
Формат/Информация : Audio Video Interleave
Размер файла : 1,02 Гбайт
Продолжительность : 1 ч. 3 м.
Общий поток : 2314 Кбит/сек
Программа кодирования : VirtualDubModRus 1.5.10.2 (build 2542/release)
Библиотека кодирования : VirtualDubMod build 2542/release

Видео
Идентификатор : 0
Формат : MPEG-4 Visual
Параметр BVOP формата : 1
Параметр QPel формата : Нет
Параметр GMC формата : Без точки перехода
Параметр матрицы формата : Default (H.263)
Режим смешивания : Сжатый битовый поток
Идентификатор кодека : DX50
Идентификатор кодека/Подсказка : DivX 5
Продолжительность : 1 ч. 3 м.
Битрейт : 2113 Кбит/сек
Ширина : 688 пикс.
Высота : 512 пикс.
Соотношение сторон : 4:3
Частота кадров : 25,000 кадр/сек
Цветовое пространство : YUV
Подвыборка цветности : 4:2:0
Битовая глубина : 8 бит
Тип развёртки : Прогрессивная
Метод сжатия : С потерями
Бит/(Пиксели*Кадры) : 0.240
Размер потока : 956 Мбайт (91%)
Библиотека кодирования : DivX 6.8.3-6.8.4 (UTC 2008-06-07)

Аудио
Идентификатор : 1
Формат : AC-3
Формат/Информация : Audio Coding 3
Расширение режима : CM (complete main)
Идентификатор кодека : 2000
Продолжительность : 1 ч. 3 м.
Вид битрейта : Постоянный
Битрейт : 192 Кбит/сек
Каналы : 2 канала
Расположение каналов : Front: L R
Частота : 48,0 КГц
Битовая глубина : 16 бит
Метод сжатия : С потерями
Размер потока : 86,9 Мбайт (8%)
Выравнивание : Соединение по промежуткам
Продолжительность промежутка : 40 мс. (1,00 видеокадр)
Время предзагрузки промежутка : 512 ms

Общее
Полное имя : D:\Downloads\Neobiknovennie_prik_Karika_i_Vali\02_Neobiknovennie_prik_Karika_i_Vali.avi
Формат : AVI
Формат/Информация : Audio Video Interleave
Размер файла : 1,03 Гбайт
Продолжительность : 1 ч. 3 м.
Общий поток : 2315 Кбит/сек
Программа кодирования : VirtualDubModRus 1.5.10.2 (build 2542/release)
Библиотека кодирования : VirtualDubMod build 2542/release

Видео
Идентификатор : 0
Формат : MPEG-4 Visual
Параметр BVOP формата : 1
Параметр QPel формата : Нет
Параметр GMC формата : Без точки перехода
Параметр матрицы формата : Default (H.263)
Режим смешивания : Сжатый битовый поток
Идентификатор кодека : DX50
Идентификатор кодека/Подсказка : DivX 5
Продолжительность : 1 ч. 3 м.
Битрейт : 2113 Кбит/сек
Ширина : 688 пикс.
Высота : 512 пикс.
Соотношение сторон : 4:3
Частота кадров : 25,000 кадр/сек
Цветовое пространство : YUV
Подвыборка цветности : 4:2:0
Битовая глубина : 8 бит
Тип развёртки : Прогрессивная
Метод сжатия : С потерями
Бит/(Пиксели*Кадры) : 0.240
Размер потока : 961 Мбайт (91%)
Библиотека кодирования : DivX 6.8.3-6.8.4 (UTC 2008-06-07)

Аудио
Идентификатор : 1
Формат : AC-3
Формат/Информация : Audio Coding 3
Расширение режима : CM (complete main)
Идентификатор кодека : 2000
Продолжительность : 1 ч. 3 м.
Вид битрейта : Постоянный
Битрейт : 192 Кбит/сек
Каналы : 2 канала
Расположение каналов : Front: L R
Частота : 48,0 КГц
Битовая глубина : 16 бит
Метод сжатия : С потерями
Размер потока : 87,3 Мбайт (8%)
Выравнивание : Соединение по промежуткам
Продолжительность промежутка : 40 мс. (1,00 видеокадр)
Время предзагрузки промежутка : 512 ms
Скриншоты 1 серии:

Скриншоты 2 серии:

Приключения Карика и Вали на NNM-Club
Время раздачи: с 23:00 до 07:00, днем по мере возможности
[NNM-Club.ru]_Neobiknovennie_prik_Karika_i_Vali.torrent
 Торрент: Платиновая раздача  Зарегистрирован
 
Скачать


Примагнититься
 Зарегистрирован:   06 Мар 2012 21:37:48
 Размер:   2,05 GB  (
 Рейтинг:   4,9 (Голосов: 49)
 Поблагодарили:   221
 Проверка:   Оформление проверено модератором 06 Мар 2012 21:49:22
Как cкачать  ·  Как раздать  ·  Правильно оформить  ·  Поднять ратио!  
Голубочек
Стаж: 8 лет 4 мес.
Сообщений: 56
Ratio: 10,639
Поблагодарили: 225
100%
Откуда: Из Страны Советов
ussr.gif
http://nnmclub.to/forum/viewtopic.php?t=505256 DVD9

http://nnmclub.to/forum/viewtopic.php?t=504428 DVD 5
Андрейкинг
Стаж: 6 лет 11 мес.
Сообщений: 19
Ratio: 0,477
0.28%
"Выпив изобретенный ими эликсир, они уменьшаются настолько, что стрекоза уносит их на пруд"

Заменить на "им"
almikl
Куратор Детского.
Модератор Видео.
RG Всё лучшее - детям!
Uploader 500+
 
Стаж: 12 лет 3 мес.
Сообщений: 4707
Ratio: 333,024
Поблагодарили: 105734
100%
Откуда: Дааалекое Подмосковье
russia.gif
Андрейкинг
Спасибо, поправил.
Показать сообщения:   
Начать новую тему   Ответить на тему    Торрент-трекер NNM-Club -> Видео -> Отечественные Фильмы для детей Часовой пояс: GMT + 3
Страница 1 из 1