Классический форум-трекер
canvas not supported
Нас вместе: 4 102 995

Ancient Books of Ys | Ys - Tenkuu no Shinden: Adol Christin no Bouken | Тайна древнего шестикнижия [1989, OVA1 + OVA2, 7 + 4 эп.] DVDRip 480p raw + eng


 
 
RSS
Начать новую тему   Ответить на тему    Торрент-трекер NNM-Club -> Аниме с субтитрами -> Аниме (SD)
Автор Сообщение
loki ®
Стаж: 9 лет 2 мес.
Сообщений: 4729
Ratio: 62,845
Поблагодарили: 37373
100%
Откуда: Днепр
roody.gif
Ys イース & Ys (イース) 天空の神殿 アドル=クリスティンの冒険
Ys & Y's II
Ancient Books of Ys & Ys - Tenkuu no Shinden: Adol Christin no Bouken
Тайна древнего шестикнижия OVA1 & OVA2

Жанр: приключения, фэнтези
Тип: OVA
Продолжительность: 7 + 4 эп., 25 мин.
Выпуск: c 21.11.1989 по 21.07.1993
Производство: Tokyo Kids
Режиссер: Камия Дзюн (OVA1) & Ватанабэ Такаси (OVA2)
Сценарий: Тиба Кацухико
В основе лежит видеоигра: Ys II: Ancient Ys Vanished - The Final Chapter
Ссылки: World-Art, Ani-DB, MAL, ANN
Описание:
Давным-давно,на всей земле царил рай. Миром правили две прекрасные богини и шесть их верных жрецов. Эта страна называлась Ис. Чёрная Жемчужина, созданная богинями из драгоценного металла — Клерия принесла этому миру процветание. Однако она породила к жизни и силы зла. Злобные твари наводнили страну и обратили мир в хаос. Тогда жрецы скрыли Клерию глубоко в чреве земли, переместив Ис, вместе с чёрной жемчужиной, на небеса. Они молились о дне, когда окончательно сгинет всё зло, чтобы Ис могла вернуться на Землю. 700 лет спустя зло снова вернулось на Землю. И вновь стало нести смерть и опустошение. И тогда появился загадочный рыжеволосый юноша. Его имя — Адол Кристин: Сильный духом.
Энкод: AHQ
Формат: DVDRip
Видео: h.264, 640x480, 23.976 fps, 1345 kbps
Аудио: Vorbis, 2 ch, 48 kHz, 96 kbps | Язык: Японский
Аудио: Vorbis, 2 ch, 48 kHz, 115 kbps | Язык: Английский
Субтитры: русские от Morigan (OVA 1); SHmeLL & Turpis (OVA 2) | английские Anime HQ | Хардсаб: отсутствует
Код:
Общее
Уникальный идентификатор                 : 209182808040165208463364974883579593684 (0x9D5F24B4EA724279D278E59CB48F83D4)
Полное имя                               : [AHQ] Ancient Books of Ys - 01 - Prologue.mkv
Формат                                   : Matroska
Версия формата                           : Version 1
Размер файла                             : 254 Мбайт
Продолжительность                        : 22 м.
Режим общего битрейта                    : Переменный
Общий поток                              : 1561 Кбит/сек
Дата кодирования                         : UTC 2005-07-06 04:18:58
Программа кодирования                    : mkvmerge v1.4.2 ('Jimi Thing') built on Apr 16 2005 13:58:15
Библиотека кодирования                   : libebml v0.7.4 + libmatroska v0.7.6
Attachements                             : Jester.ttf

Видео
Идентификатор                            : 1
Формат                                   : MPEG-4 Visual
Профиль формата                          : Simple@L3
Параметр BVOP формата                    : 2
Параметр QPel формата                    : Нет
Параметр GMC формата                     : Без точки перехода
Параметр матрицы формата                 : Default (H.263)
Режим смешивания                         : Сжатый битовый поток
Идентификатор кодека                     : V_MS/VFW/FOURCC / XVID
Идентификатор кодека/Подсказка           : XviD
Продолжительность                        : 22 м.
Битрейт                                  : 1270 Кбит/сек
Ширина                                   : 640 пикселей
Высота                                   : 480 пикселей
Соотношение сторон                       : 4:3
Режим частоты кадров                     : Постоянный
Частота кадров                           : 23,976 кадра/сек
Цветовое пространство                    : YUV
Субдискретизация насыщенности            : 4:2:0
Битовая глубина                          : 8 бит
Тип развёртки                            : Прогрессивная
Метод сжатия                             : С потерями
Бит/(Пиксели*Кадры)                      : 0.172
Размер потока                            : 207 Мбайт (81%)
Библиотека кодирования                   : XviD 1.0.2 (UTC 2004-08-29)
Default                                  : Да
Forced                                   : Нет

Аудио #1
Идентификатор                            : 2
Формат                                   : Vorbis
Параметр Floor формата                   : 1
Идентификатор кодека                     : A_VORBIS
Продолжительность                        : 22 м.
Вид битрейта                             : Переменный
Битрейт                                  : 130 Кбит/сек
Каналы                                   : 2 канала
Частота                                  : 48,0 КГц
Метод сжатия                             : С потерями
Размер потока                            : 21,1 Мбайт (8%)
Библиотека кодирования                   : libVorbis 1.0 (UTC 2002-07-17)
Язык                                     : Japanese
Default                                  : Да
Forced                                   : Нет

Аудио #2
Идентификатор                            : 3
Формат                                   : Vorbis
Параметр Floor формата                   : 1
Идентификатор кодека                     : A_VORBIS
Продолжительность                        : 22 м.
Вид битрейта                             : Переменный
Битрейт                                  : 130 Кбит/сек
Каналы                                   : 2 канала
Частота                                  : 48,0 КГц
Метод сжатия                             : С потерями
Размер потока                            : 21,1 Мбайт (8%)
Библиотека кодирования                   : libVorbis 1.0 (UTC 2002-07-17)
Язык                                     : English
Default                                  : Нет
Forced                                   : Нет

Текст
Идентификатор                            : 4
Формат                                   : SSA
Идентификатор кодека                     : S_TEXT/SSA
Идентификатор кодека/Информация          : Sub Station Alpha
Метод сжатия                             : Без потерь
Язык                                     : English
Default                                  : Да
Forced                                   : Нет
OVA 1
01. Prologue
02. The Chapter of Hadal
03. The Book of Doba
04. The Chapter of Doba
05. The Chapter of Mesa
06. The Chapter of Jema
07. The Chapter of Fact
OVA 2
01. Fallen Paradise
02. The End of the World
03. Wandering and Straying
04. On the Path to Destiny
Скриншоты:
OVA 1

OVA 2


Время раздачи: круглосуточно, до 3 скачавших
[NNM-Club.me]_[AHQ] Ancient Books Of Ys I & II.torrent
 Торрент: Платиновая раздача  Зарегистрирован
 
Скачать


Примагнититься
 Зарегистрирован:   11 Фев 2015 20:59:45
 Размер:   2,98 GB  (
 Рейтинг:   4,5 (Голосов: 26)
 Поблагодарили:   32
 Проверка:   Оформление проверено модератором 11 Фев 2015 21:38:44
Как cкачать  ·  Как раздать  ·  Правильно оформить  ·  Поднять ратио!  
SirBastard
Стаж: 7 лет 1 мес.
Сообщений: 4
Ratio: 1,69
62.5%
russia.gif
Благодарю, только начал знакомство с играми серии и аниме тоже в первую очередь посмотрю.
OnZa
Стаж: 12 лет 3 мес.
Сообщений: 1967
Ratio: 28,74
Поблагодарили: 12958
100%
Откуда: moscow
roody.gif
loki
чертяка, снова выложил вкусняхку )
xxxhhh667
Стаж: 9 лет 1 мес.
Сообщений: 8725
Ratio: 75,353
Поблагодарили: 3579
100%
Откуда: 0000
roody.gif
OnZa писал(а): Перейти к сообщению
вкусняхку

Цитата:
Ys - 1 / 5 (avg < 3)
Ys Ⅱ - 2.5 / 5

Ну, ок.

_________________
Если долго всматриваться в бездну — бездна начнёт всматриваться в тебя. (ↄ)
Показать сообщения:   
Начать новую тему   Ответить на тему    Торрент-трекер NNM-Club -> Аниме с субтитрами -> Аниме (SD) Часовой пояс: GMT + 3
Страница 1 из 1