Классический форум-трекер
canvas not supported
Нас вместе: 4 081 364

Звонарь (2019) WEB-DLRip [H.264] (сезон 1, серии 1-24 из 24)


Страницы:   Пред.  1, 2 
 
RSS
Начать новую тему   Ответить на тему    Торрент-трекер NNM-Club -> Зарубежные сериалы -> Сериалы ближнего зарубежья
Автор Сообщение
Alone_Kedr ®
Uploader 100+
Лауреат КТ
Стаж: 5 лет 5 мес.
Сообщений: 1783
Ratio: 2035,24
Поблагодарили: 163364
100%
Откуда: CCCP
ussr.gif
Звонарь (2019) WEB-DLRip [H.264] (сезон 1, серии 1-24 из 24)
Производство: Украина | Гольфстрим продакшн
Жанр: детектив

Режиссер: Кирилл Капица
Актеры: Артем Алексеев, Анастасия Чепелюк, Наталия Бабенко, Сергей Калантай, Инна Мирошниченко, Алексей Нагрудный, Александр Зиневич, Михаил Шамигулов, Евгений Авдеенко, Глеб Мацибора и др.

Описание:
Детективная история про сообразительного, а иногда наглого оперативника Антона Звонцова по прозвищу Звонарь, который часто берется за расследование неоднозначных частных дел. Звонарь искусно блефует, находит компромиссные решения и может договориться с кем угодно. Его методы расследования дерзкие, поступки часто вызывают недовольство коллег, а работа над частными делами нередко противоречит интересам руководства. Однако каждый из его окружения – друзья детства, бизнесмены, сотрудники, даже бандиты – знают, что благодаря настойчивости и острому уму, Звонарь может "разрулить" любую, даже самую сложную ситуацию...


Дата мировой премьеры: 1 апреля 2019

Продолжительность: ~00:47:00 серия
Качество видео: WEB-DLRip
Язык озвучки: русский

Видео: AVC/H.264, 1024x576 (16:9), ~1600 kbps
Аудио: AC3, 2 ch, 192 kbps
Скриншоты:


Все одноименные релизы в Клубе
Время раздачи: 24/7 (до появления первых 3-5 скачавших)
[NNM-Club.me]_Zvonar_2019_WEB-DLRip_AVC.torrent
 Торрент: Платиновая раздача  Зарегистрирован
 
Скачать


Примагнититься
 Зарегистрирован:   10 Май 2019 10:46:04
 Размер:   14,3 GB  (
 Рейтинг:   3,7 (Голосов: 65)
 Поблагодарили:   194
 Проверка:   Оформление проверено модератором 10 Май 2019 12:36:55
Как cкачать  ·  Как раздать  ·  Правильно оформить  ·  Поднять ратио!  
Alone_Kedr ®
Uploader 100+
Лауреат КТ
Стаж: 5 лет 5 мес.
Сообщений: 1783
Ratio: 2035,24
Поблагодарили: 163364
100%
Откуда: CCCP
ussr.gif
Добавлена 24-я серия
ушук
Стаж: 7 лет
Сообщений: 205
Ratio: 120,599
Раздал: 78,52 TB
100%
russia.gif
Супер сериал. Спасибо.
Kedmi
Стаж: 10 мес. 10 дней
Сообщений: 739
Ratio: 11,476
100%
israel.gif
ушук писал(а): Перейти к сообщению
Супер сериал. Спасибо.


Когда ты смотреть всё успеваешь,чуть ли не все сериалы и отзыв. По типу этого :D

_________________
Неспособный выдержать плохое, не доживет, чтобы увидеть хорошее
ушук
Стаж: 7 лет
Сообщений: 205
Ratio: 120,599
Раздал: 78,52 TB
100%
russia.gif
Kedmi я все скачанные сериалы и фильмы смотрю. Сериал с юмором и с хорошей
постановкой. Мне попросили выложить сериал Анка с Молдаванки (2015) и Звонарь (2019) был один сид стало три. У меня хард не резинованый я скачивваю и складываю сериалы и фильмы на внешние хардды по 4 т.б . А в твоём профиле нет раздач так помалкиваай.
Я хоть не выкладываю раздачи но хорошо сидирую. Я верный сид. Посмотри в мой профиль.

Добавлено спустя 53 минуты 54 секунды:

Kedmi я скачал Игра престолов (Game of Thrones 2011-2019) с другово треккера потому он на
NNM-Club очень большой (не в обиду NNM-Club ) я убрал все звуквые дорожки оставил только LostFilm если ты рабирающийся в MediaInfo то посмотри.

Видео
Идентификатор : 1
Формат : AVC
Формат/Информация : Advanced Video Codec
Профиль формата : High@L4.1
Параметр CABAC формата : Да
Параметр ReFrames формата : 9 кадров
Идентификатор кодека : V_MPEG4/ISO/AVC
Продолжительность : 58 м.
Битрейт : 2002 Кбит/сек
Ширина : 1024 пикселя
Высота : 576 пикселей
Соотношение сторон : 16:9
Режим частоты кадров : Постоянный
Частота кадров : 23,976 (24000/1001) кадра/сек
Цветовое пространство : YUV
Субдискретизация насыщенности : 4:2:0
Битовая глубина : 8 бит
Тип развёртки : Прогрессивная
Бит/(Пиксели*Кадры) : 0.142
Размер потока : 806 Мбайт (65%)
Библиотека кодирования : x264 core 152 r2851kMod ba24899
Настройки программы : cabac=1 / ref=9 / deblock=1:-1:-1 / analyse=0x3:0x113 / me=umh / subme=11 / psy=1 / fade_compensate=0.00 / psy_rd=1.00:0.00 / mixed_ref=1 / me_range=32 / chroma_me=1 / trellis=2 / 8x8dct=1 / cqm=0 / deadzone=21,11 / fast_pskip=0 / chroma_qp_offset=-2 / threads=12 / lookahead_threads=2 / sliced_threads=0 / nr=0 / decimate=0 / interlaced=0 / bluray_compat=0 / constrained_intra=0 / bframes=9 / b_pyramid=2 / b_adapt=2 / b_bias=0 / direct=3 / weightb=1 / open_gop=0 / weightp=2 / keyint=240 / keyint_min=23 / scenecut=40 / intra_refresh=0 / rc_lookahead=40 / rc=2pass / mbtree=0 / bitrate=2002 / ratetol=1.0 / qcomp=0.70 / qpmin=0 / qpmax=69 / qpstep=4 / cplxblur=20.0 / qblur=0.5 / vbv_maxrate=50000 / vbv_bufsize=62500 / nal_hrd=none / filler=0 / ip_ratio=1.40 / pb_ratio=1.30 / aq=3:0.80
Язык : English
Default : Да
Forced : Нет

Аудио #1
Идентификатор : 2
Формат : AC-3
Формат/Информация : Audio Coding 3
Расширение режима : CM (complete main)
Параметр Endianness формата : Big
Идентификатор кодека : A_AC3
Продолжительность : 58 м.
Вид битрейта : Постоянный
Битрейт : 384 Кбит/сек
Каналы : 6 каналов
Расположение каналов : Front: L C R, Side: L R, LFE
Частота : 48,0 КГц
Частота кадров : 31,250 кадров/сек (1536 spf)
Метод сжатия : С потерями
Размер потока : 160 Мбайт (13%)
Заголовок : LostFilm
Язык : Russian
Default : Да
Forced : Нет

Аудио #2
Идентификатор : 3
Формат : AC-3
Формат/Информация : Audio Coding 3
Расширение режима : CM (complete main)
Параметр Endianness формата : Big
Идентификатор кодека : A_AC3
Продолжительность : 58 м.
Вид битрейта : Постоянный
Битрейт : 192 Кбит/сек
Каналы : 2 канала
Расположение каналов : Front: L R
Частота : 48,0 КГц
Частота кадров : 31,250 кадров/сек (1536 spf)
Метод сжатия : С потерями
Размер потока : 80,1 Мбайт (7%)
Заголовок : Kravec-Amedia
Язык : Russian
Default : Нет
Forced : Нет

Аудио #3
Идентификатор : 4
Формат : AC-3
Формат/Информация : Audio Coding 3
Расширение режима : CM (complete main)
Параметр Endianness формата : Big
Идентификатор кодека : A_AC3
Продолжительность : 58 м.
Вид битрейта : Постоянный
Битрейт : 384 Кбит/сек
Каналы : 6 каналов
Расположение каналов : Front: L C R, Side: L R, LFE
Частота : 48,0 КГц
Частота кадров : 31,250 кадров/сек (1536 spf)
Метод сжатия : С потерями
Размер потока : 160 Мбайт (13%)
Заголовок : Original
Язык : English
Default : Нет
Forced : Нет

Текст #1
Идентификатор : 5
Формат : ASS
Идентификатор кодека : S_TEXT/ASS
Идентификатор кодека/Информация : Advanced Sub Station Alpha
Метод сжатия : Без потерь
Заголовок : FORCED
Язык : Russian
Default : Нет
Forced : Нет

Текст #2
Идентификатор : 6
Формат : UTF-8
Идентификатор кодека : S_TEXT/UTF8
Идентификатор кодека/Информация : UTF-8 Plain Text
Заголовок : FULL
Язык : Russian
Default : Нет
Forced : Нет

Текст #3
Идентификатор : 7
Формат : UTF-8
Идентификатор кодека : S_TEXT/UTF8
Идентификатор кодека/Информация : UTF-8 Plain Text
Заголовок : FORCED
Язык : English
Default : Нет
Forced : Нет

Текст #4
Идентификатор : 8
Формат : UTF-8
Идентификатор кодека : S_TEXT/UTF8
Идентификатор кодека/Информация : UTF-8 Plain Text
Заголовок : FULL
Язык : English
Default : Нет
Forced : Нет

Я скачиваю с семи треккерах потому что сериалы и фильмы нет на NNM-Club.

Не в обиду АДМИНИСТРАТОРАМ NNM-Club. Если что то не так ПРОСТИТЕ.
Показать сообщения:   
Начать новую тему   Ответить на тему    Торрент-трекер NNM-Club -> Зарубежные сериалы -> Сериалы ближнего зарубежья Часовой пояс: GMT + 3
Страницы:   Пред.  1, 2
Страница 2 из 2