Классический форум-трекер
canvas not supported
Нас вместе: 4 081 234

Лев Толстой | Война и мир (2015) [M4B|AAC]


 
 
RSS
Начать новую тему   Ответить на тему    Торрент-трекер NNM-Club -> Аудио и Видео -> Аудиокниги (AAC)
Автор Сообщение
archiv7 ®
Стаж: 9 лет 6 мес.
Сообщений: 39
Ratio: 14,725
Поблагодарили: 3298
100%
Лев Толстой | Война и мир (2015) [M4B|AAC]
Автор: Лев Толстой
Жанр: Классика
Читает: Александр Клюквин
Продолжительность: 60:09:16
Издательство: Союз / Покидышев и сыновья

Описание:
«Война и мир» История войны и мира в разнообразных и неожиданных проявлениях, пронизанная множеством сюжетных линий, - это пронзительный, точный, панорамный и обстоятельный взгляд мудрого художника на вечные проблемы Бытия. "Война и мир" - масштабный, не имеющий равных в мировой литературе роман-эпопея писателя Льва Николаевича Толстого.

Формат: M4B
Аудиокодек: AAC
Битрейт аудио: 112 kbps
Частота: 44,1 KHz
Разбивка на главы: есть
Вшитая обложка: есть
Музыкальное сопровождение: нет

Эта раздача с 6-ти дискового коллекционного издания вышедшего тиражом 500 шт.
Файлы в издании изначально на 6-ти дисках, перераспределены по 4 томам, каждый том в своей папке.

Код: выделить все
Общее
Общее
Полное имя                               : 01 Часть первая.m4b
Формат                                   : MPEG-4
Профиль формата                          : Apple audio with iTunes position
Идентификатор кодека                     : M4B  (M4B /mp42/isom)
Размер файла                             : 282 Мбайт
Продолжительность                        : 5 ч. 15 м.
Режим общего битрейта                    : Переменный
Общий поток                              : 125 Кбит/сек
Альбом                                   : Война и Мир. Том 1
Альбом/Исполнитель                       : Толстой Лев Николаевич
Трек                                     : Часть первая
Трек/Положение                           : 1
Трек/Всего                               : 3
Исполнитель                              : Толстой Лев Николаевич
Композитор                               : Клюквин Александр
Жанр                                     : Классическая
Описание                                 : Audiobook created by MarkAble
Дата записи                              : 2013
Дата кодирования                         : UTC 2014-12-15 22:16:00
Дата пометки                             : UTC 2014-12-15 23:23:30
Обложка                                  : Yes

Аудио
Идентификатор                            : 1
Формат                                   : AAC
Формат/Информация                        : Advanced Audio Codec
Профиль формата                          : LC
Идентификатор кодека                     : 40
Продолжительность                        : 5 ч. 15 м.
Вид битрейта                             : Переменный
Битрейт                                  : 128 Кбит/сек
Максимальный битрейт                     : 185 Кбит/сек
Каналы                                   : 2 канала
Расположение каналов                     : Front: L R
Частота                                  : 44,1 КГц
Частота кадров                           : 43,066 кадра/сек (1024 spf)
Метод сжатия                             : С потерями
Размер потока                            : 279 Мбайт (99%)
Дата кодирования                         : UTC 2014-12-15 22:16:00
Дата пометки                             : UTC 2014-12-15 23:23:30
Menus                                    : 2

Меню
Идентификатор                            : 2
Идентификатор кодека                     : text
Продолжительность                        : 5 ч. 15 м.
Язык                                     : English
Дата кодирования                         : UTC 2014-12-15 21:59:38
Дата пометки                             : UTC 2014-12-15 21:59:38
Menu For                                 : 1
00:00:00.000                             : I
00:13:17.001                             : II
00:21:47.515                             : III
00:35:11.877                             : IV
00:53:58.788                             : V
01:02:51.175                             : VI
01:30:23.693                             : VII
01:40:47.428                             : VIII
01:46:16.176                             : IX
01:55:11.953                             : X
02:00:26.676                             : XI
02:10:51.502                             : XII
02:20:35.762                             : XIII
02:32:34.374                             : XIV
02:37:28.803                             : XV
02:52:50.124                             : XVI
03:00:23.726                             : XVII
03:13:56.796                             : XVIII
03:32:05.835                             : XIX
03:43:44.152                             : XX
03:55:54.489                             : XXI
04:07:16.900                             : XXII
04:31:14.564                             : XXIII
04:43:20.512                             : XXIV
04:53:43.272                             : XXV
Вид битрейта                             : VBR

Общее
Полное имя                               : 01 Часть первая 1.m4b
Формат                                   : MPEG-4
Профиль формата                          : Apple audio with iTunes position
Идентификатор кодека                     : M4B  (M4B /mp42/isom)
Размер файла                             : 134 Мбайт
Продолжительность                        : 2 ч. 30 м.
Режим общего битрейта                    : Переменный
Общий поток                              : 124 Кбит/сек
Альбом                                   : Война и Мир. Том 2
Альбом/Исполнитель                       : Толстой Лев Николаевич
Трек                                     : Часть первая
Трек/Положение                           : 1
Трек/Всего                               : 5
Исполнитель                              : Толстой Лев Николаевич
Композитор                               : Клюквин Александр
Жанр                                     : Классическая
Описание                                 : Audiobook created by MarkAble
Дата записи                              : 2013
Дата кодирования                         : UTC 2014-12-16 20:13:38
Дата пометки                             : UTC 2014-12-16 23:22:36
Обложка                                  : Yes

Аудио
Идентификатор                            : 1
Формат                                   : AAC
Формат/Информация                        : Advanced Audio Codec
Профиль формата                          : LC
Идентификатор кодека                     : 40
Продолжительность                        : 2 ч. 30 м.
Вид битрейта                             : Переменный
Битрейт                                  : 128 Кбит/сек
Максимальный битрейт                     : 190 Кбит/сек
Каналы                                   : 2 канала
Расположение каналов                     : Front: L R
Частота                                  : 44,1 КГц
Частота кадров                           : 43,066 кадра/сек (1024 spf)
Метод сжатия                             : С потерями
Размер потока                            : 132 Мбайт (99%)
Дата кодирования                         : UTC 2014-12-16 20:13:38
Дата пометки                             : UTC 2014-12-16 23:22:36
Menus                                    : 2

Меню
Идентификатор                            : 2
Идентификатор кодека                     : text
Продолжительность                        : 2 ч. 30 м.
Язык                                     : English
Дата кодирования                         : UTC 2014-12-16 20:50:21
Дата пометки                             : UTC 2014-12-16 20:50:22
Menu For                                 : 1
00:00:00.000                             : I
00:17:48.094                             : II
00:32:10.715                             : III
00:44:15.317                             : IV
00:56:26.909                             : V
01:02:35.177                             : VI
01:14:45.770                             : VII
01:23:10.037                             : VIII
01:33:21.512                             : IX
01:39:12.922                             : X
01:47:17.337                             : XI
01:53:28.601                             : XII
02:01:08.217                             : XIII
02:08:22.987                             : XIV
02:14:58.051                             : XV
02:23:08.410                             : XVI
Вид битрейта                             : VBR

Общее
Полное имя                               : 01 Часть первая 2.m4b
Формат                                   : MPEG-4
Профиль формата                          : Apple audio with iTunes position
Идентификатор кодека                     : M4B  (M4B /mp42/isom)
Размер файла                             : 200 Мбайт
Продолжительность                        : 3 ч. 56 м.
Режим общего битрейта                    : Переменный
Общий поток                              : 118 Кбит/сек
Альбом                                   : Война и Мир. Том 3
Альбом/Исполнитель                       : Толстой Лев Николаевич
Трек                                     : Часть первая
Трек/Положение                           : 1
Трек/Всего                               : 3
Исполнитель                              : Толстой Лев Николаевич
Композитор                               : Клюквин Александр
Жанр                                     : Классическая
Описание                                 : Audiobook created by MarkAble
Дата записи                              : 2013
Дата кодирования                         : UTC 2014-12-16 22:24:53
Дата пометки                             : UTC 2014-12-16 23:23:41
Обложка                                  : Yes

Аудио
Идентификатор                            : 1
Формат                                   : AAC
Формат/Информация                        : Advanced Audio Codec
Профиль формата                          : LC
Идентификатор кодека                     : 40
Продолжительность                        : 3 ч. 56 м.
Вид битрейта                             : Переменный
Битрейт                                  : 116 Кбит/сек
Номинальный битрейт                      : 128 Кбит/сек
Максимальный битрейт                     : 154 Кбит/сек
Каналы                                   : 2 канала
Расположение каналов                     : Front: L R
Частота                                  : 44,1 КГц
Частота кадров                           : 43,066 кадра/сек (1024 spf)
Метод сжатия                             : С потерями
Размер потока                            : 197 Мбайт (99%)
Дата кодирования                         : UTC 2014-12-16 22:24:53
Дата пометки                             : UTC 2014-12-16 23:23:41
Menus                                    : 2

Меню
Идентификатор                            : 2
Идентификатор кодека                     : text
Продолжительность                        : 3 ч. 56 м.
Язык                                     : English
Дата кодирования                         : UTC 2014-12-16 22:10:48
Дата пометки                             : UTC 2014-12-16 22:10:48
Menu For                                 : 1
00:00:00.000                             : I
00:12:43.634                             : II
00:21:31.586                             : III
00:30:20.815                             : IV
00:40:09.395                             : V
00:45:40.302                             : VI
01:02:19.829                             : VII
01:10:25.358                             : VIII
01:25:51.416                             : IX
01:43:38.675                             : XI
01:51:56.952                             : XII
02:04:19.433                             : XIII
02:14:10.126                             : XIV
02:20:44.447                             : XV
02:27:51.787                             : XVI
02:35:26.944                             : XVII
02:43:03.542                             : XVIII
02:51:39.860                             : XIX
03:04:35.616                             : XX
03:13:35.085                             : XXI
03:27:34.579                             : XXII
03:39:18.213                             : XXIII
03:52:31.035                             : XXIV
Вид битрейта                             : VBR

Общее
Полное имя                               : 01 Часть первая 3.m4b
Формат                                   : MPEG-4
Профиль формата                          : Apple audio with iTunes position
Идентификатор кодека                     : M4B  (M4B /mp42/isom)
Размер файла                             : 124 Мбайт
Продолжительность                        : 2 ч. 36 м.
Режим общего битрейта                    : Переменный
Общий поток                              : 111 Кбит/сек
Альбом                                   : Война и Мир. Том 4
Альбом/Исполнитель                       : Толстой Лев Николаевич
Трек                                     : Часть первая
Трек/Положение                           : 1
Трек/Всего                               : 6
Исполнитель                              : Толстой Лев Николаевич
Композитор                               : Клюквин Александр
Жанр                                     : Классическая
Описание                                 : Audiobook created by MarkAble
Дата записи                              : 2013
Дата кодирования                         : UTC 2014-12-18 23:27:10
Дата пометки                             : UTC 2014-12-19 21:26:44
Обложка                                  : Yes

Аудио
Идентификатор                            : 1
Формат                                   : AAC
Формат/Информация                        : Advanced Audio Codec
Профиль формата                          : LC
Идентификатор кодека                     : 40
Продолжительность                        : 2 ч. 36 м.
Вид битрейта                             : Переменный
Битрейт                                  : 109 Кбит/сек
Номинальный битрейт                      : 128 Кбит/сек
Максимальный битрейт                     : 157 Кбит/сек
Каналы                                   : 2 канала
Расположение каналов                     : Front: L R
Частота                                  : 44,1 КГц
Частота кадров                           : 43,066 кадра/сек (1024 spf)
Метод сжатия                             : С потерями
Размер потока                            : 122 Мбайт (98%)
Дата кодирования                         : UTC 2014-12-18 23:27:10
Дата пометки                             : UTC 2014-12-19 21:26:44
Menus                                    : 2

Меню
Идентификатор                            : 2
Идентификатор кодека                     : text
Продолжительность                        : 2 ч. 36 м.
Язык                                     : English
Дата кодирования                         : UTC 2014-12-18 23:04:00
Дата пометки                             : UTC 2014-12-18 23:04:00
Menu For                                 : 1
00:00:00.000                             : I
00:09:44.330                             : II
00:15:48.093                             : III
00:22:59.729                             : IV
00:35:26.784                             : V
00:43:33.800                             : VI
00:54:00.065                             : VII
01:04:59.001                             : VIII
01:15:08.153                             : IX
01:20:24.943                             : X
01:29:28.685                             : XI
01:38:24.717                             : XII
01:51:20.450                             : XIII
01:58:38.192                             : XIV
02:11:32.438                             : XV
02:21:52.249                             : XVI
Вид битрейта                             : VBR

Общее
Полное имя                               : 02 Часть вторая.m4b
Формат                                   : MPEG-4
Профиль формата                          : Apple audio with iTunes position
Идентификатор кодека                     : M4B  (M4B /mp42/isom)
Размер файла                             : 234 Мбайт
Продолжительность                        : 4 ч. 26 м.
Режим общего битрейта                    : Переменный
Общий поток                              : 123 Кбит/сек
Альбом                                   : Война и Мир. Том 1
Альбом/Исполнитель                       : Толстой Лев Николаевич
Трек                                     : Часть вторая
Трек/Положение                           : 2
Трек/Всего                               : 3
Исполнитель                              : Толстой Лев Николаевич
Композитор                               : Клюквин Александр
Жанр                                     : Классическая
Описание                                 : Audiobook created by MarkAble
Дата записи                              : 2013
Дата кодирования                         : UTC 2014-12-15 22:29:44
Дата пометки                             : UTC 2014-12-15 23:23:25
Обложка                                  : Yes

Аудио
Идентификатор                            : 1
Формат                                   : AAC
Формат/Информация                        : Advanced Audio Codec
Профиль формата                          : LC
Идентификатор кодека                     : 40
Продолжительность                        : 4 ч. 26 м.
Вид битрейта                             : Переменный
Битрейт                                  : 121 Кбит/сек
Номинальный битрейт                      : 128 Кбит/сек
Максимальный битрейт                     : 175 Кбит/сек
Каналы                                   : 2 канала
Расположение каналов                     : Front: L R
Частота                                  : 44,1 КГц
Частота кадров                           : 43,066 кадра/сек (1024 spf)
Метод сжатия                             : С потерями
Размер потока                            : 231 Мбайт (99%)
Дата кодирования                         : UTC 2014-12-15 22:29:44
Дата пометки                             : UTC 2014-12-15 23:23:25
Menus                                    : 2

Меню
Идентификатор                            : 2
Идентификатор кодека                     : text
Продолжительность                        : 4 ч. 26 м.
Язык                                     : English
Дата кодирования                         : UTC 2014-12-15 22:08:40
Дата пометки                             : UTC 2014-12-15 22:08:40
Menu For                                 : 1
00:00:00.000                             : I
00:11:37.295                             : II
00:29:43.989                             : III
00:46:14.227                             : IV
01:05:11.447                             : V
01:12:42.124                             : VI
01:18:49.394                             : VII
01:30:01.519                             : VIII
01:50:45.597                             : IX
02:02:38.287                             : X
02:16:40.963                             : XI
02:23:01.236                             : XII
02:36:03.052                             : XIII
02:50:31.014                             : XIV
02:58:13.300                             : XV
03:11:24.451                             : XVI
03:17:10.173                             : XVII
03:28:45.703                             : XVIII
03:40:05.398                             : XIX
03:53:16.107                             : XX
04:07:50.013                             : XXI
Вид битрейта                             : VBR

Общее
Полное имя                               : 02 Часть вторая 1.m4b
Формат                                   : MPEG-4
Профиль формата                          : Apple audio with iTunes position
Идентификатор кодека                     : M4B  (M4B /mp42/isom)
Размер файла                             : 187 Мбайт
Продолжительность                        : 3 ч. 30 м.
Режим общего битрейта                    : Переменный
Общий поток                              : 124 Кбит/сек
Альбом                                   : Война и Мир. Том 2
Альбом/Исполнитель                       : Толстой Лев Николаевич
Трек                                     : Часть вторая
Трек/Положение                           : 2
Трек/Всего                               : 5
Исполнитель                              : Толстой Лев Николаевич
Композитор                               : Клюквин Александр
Жанр                                     : Классическая
Описание                                 : Audiobook created by MarkAble
Дата записи                              : 2013
Дата кодирования                         : UTC 2014-12-16 20:18:59
Дата пометки                             : UTC 2014-12-16 23:22:36
Обложка                                  : Yes

Аудио
Идентификатор                            : 1
Формат                                   : AAC
Формат/Информация                        : Advanced Audio Codec
Профиль формата                          : LC
Идентификатор кодека                     : 40
Продолжительность                        : 3 ч. 30 м.
Продолжительность оригинала              : 3 ч. 30 м.
Вид битрейта                             : Переменный
Битрейт                                  : 128 Кбит/сек
Максимальный битрейт                     : 187 Кбит/сек
Каналы                                   : 2 канала
Расположение каналов                     : Front: L R
Частота                                  : 44,1 КГц
Частота кадров                           : 43,066 кадра/сек (1024 spf)
Метод сжатия                             : С потерями
Размер потока                            : 185 Мбайт (99%)
Размер потока оригинала                  : 185 Мбайт (99%)
Дата кодирования                         : UTC 2014-12-16 20:18:59
Дата пометки                             : UTC 2014-12-16 23:22:36
Menus                                    : 2

Меню
Идентификатор                            : 2
Идентификатор кодека                     : text
Продолжительность                        : 3 ч. 30 м.
Язык                                     : English
Дата кодирования                         : UTC 2014-12-16 20:52:42
Дата пометки                             : UTC 2014-12-16 20:52:42
Menu For                                 : 1
Продолжительность оригинала              : 12656314
Количество кадров оригинала              : 21
Размер потока оригинала                  : 348
Счётчик кадров                           : 21
Размер потока                            : 348
00:00:00.000                             : I
00:08:07.386                             : II
00:24:08.275                             : III
00:42:32.104                             : IV
00:51:47.990                             : V
00:56:12.048                             : VI
01:07:09.196                             : VII
01:11:16.372                             : VIII
01:21:10.989                             : IX
01:33:08.671                             : X
01:44:31.593                             : XI
02:04:05.896                             : XII
02:13:32.672                             : XII
02:22:13.821                             : XIV
02:27:00.703                             : XV
02:36:25.529                             : XVI
02:47:20.680                             : XVII
02:55:54.862                             : XVIII
03:02:18.038                             : XIX
03:11:36.896                             : XX
03:20:06.132                             : XXI
Вид битрейта                             : VBR

Общее
Полное имя                               : 02 Часть вторая 2.m4b
Формат                                   : MPEG-4
Профиль формата                          : Apple audio with iTunes position
Идентификатор кодека                     : M4B  (M4B /mp42/isom)
Размер файла                             : 322 Мбайт
Продолжительность                        : 6 ч. 41 м.
Режим общего битрейта                    : Переменный
Общий поток                              : 112 Кбит/сек
Альбом                                   : Война и Мир. Том 3
Альбом/Исполнитель                       : Толстой Лев Николаевич
Трек                                     : Часть вторая
Трек/Положение                           : 2
Трек/Всего                               : 3
Исполнитель                              : Толстой Лев Николаевич
Композитор                               : Клюквин Александр
Жанр                                     : Классическая
Описание                                 : Audiobook created by MarkAble
Дата записи                              : 2013
Дата кодирования                         : UTC 2014-12-16 22:35:02
Дата пометки                             : UTC 2014-12-16 23:23:11
Обложка                                  : Yes

Аудио
Идентификатор                            : 1
Формат                                   : AAC
Формат/Информация                        : Advanced Audio Codec
Профиль формата                          : LC
Идентификатор кодека                     : 40
Продолжительность                        : 6 ч. 41 м.
Вид битрейта                             : Переменный
Битрейт                                  : 111 Кбит/сек
Номинальный битрейт                      : 128 Кбит/сек
Максимальный битрейт                     : 161 Кбит/сек
Каналы                                   : 2 канала
Расположение каналов                     : Front: L R
Частота                                  : 44,1 КГц
Частота кадров                           : 43,066 кадра/сек (1024 spf)
Метод сжатия                             : С потерями
Размер потока                            : 318 Мбайт (99%)
Дата кодирования                         : UTC 2014-12-16 22:35:02
Дата пометки                             : UTC 2014-12-16 23:23:11
Menus                                    : 2

Меню
Идентификатор                            : 2
Идентификатор кодека                     : text
Продолжительность                        : 6 ч. 41 м.
Язык                                     : English
Дата кодирования                         : UTC 2014-12-16 22:13:51
Дата пометки                             : UTC 2014-12-16 22:13:51
Menu For                                 : 1
00:00:00.000                             : I
00:13:19.486                             : II
00:23:18.723                             : III
00:29:46.125                             : IV
00:53:37.240                             : V
01:09:25.311                             : VI
01:19:40.408                             : VII
01:27:41.270                             : VIII
01:48:37.028                             : IX
02:00:33.108                             : X
02:13:06.387                             : XI
02:19:20.391                             : XII
02:24:29.704                             : XIII
02:33:32.540                             : XIV
02:45:01.615                             : XV
03:00:31.528                             : XVI
03:09:33.761                             : XVII
03:19:56.102                             : XVIII
03:31:19.535                             : XIX
03:43:21.164                             : XX
03:52:13.087                             : XXI
04:02:22.704                             : XXII
04:10:55.563                             : XXIII
04:15:06.269                             : XXIV
04:22:06.736                             : XXV
04:39:59.127                             : XXVI
04:49:33.287                             : XXVII
04:57:12.531                             : XXVIII
05:03:58.532                             : XXIX
05:10:15.020                             : XXX
05:17:23.382                             : XXXI
05:34:39.084                             : XXXII
05:38:33.792                             : XXXIII
05:46:00.404                             : XXXIV
05:57:16.779                             : XXXV
06:07:00.110                             : XXXVI
06:18:55.772                             : XXXVII
06:26:27.192                             : XXXVIII
06:35:07.272                             : XXXIX
Вид битрейта                             : VBR

Общее
Полное имя                               : 02 Часть вторая 3.m4b
Формат                                   : MPEG-4
Профиль формата                          : Apple audio with iTunes position
Идентификатор кодека                     : M4B  (M4B /mp42/isom)
Размер файла                             : 106 Мбайт
Продолжительность                        : 2 ч. 8 м.
Режим общего битрейта                    : Переменный
Общий поток                              : 115 Кбит/сек
Альбом                                   : Война и Мир. Том 4
Альбом/Исполнитель                       : Толстой Лев Николаевич
Трек                                     : Часть вторая
Трек/Положение                           : 2
Трек/Всего                               : 6
Исполнитель                              : Толстой Лев Николаевич
Композитор                               : Клюквин Александр
Жанр                                     : Классическая
Описание                                 : Audiobook created by MarkAble
Дата записи                              : 2013
Дата кодирования                         : UTC 2014-12-18 23:33:10
Дата пометки                             : UTC 2014-12-19 21:26:35
Обложка                                  : Yes

Аудио
Идентификатор                            : 1
Формат                                   : AAC
Формат/Информация                        : Advanced Audio Codec
Профиль формата                          : LC
Идентификатор кодека                     : 40
Продолжительность                        : 2 ч. 8 м.
Продолжительность оригинала              : 2 ч. 8 м.
Вид битрейта                             : Переменный
Битрейт                                  : 114 Кбит/сек
Номинальный битрейт                      : 128 Кбит/сек
Максимальный битрейт                     : 154 Кбит/сек
Каналы                                   : 2 канала
Расположение каналов                     : Front: L R
Частота                                  : 44,1 КГц
Частота кадров                           : 43,066 кадра/сек (1024 spf)
Метод сжатия                             : С потерями
Размер потока                            : 104 Мбайт (99%)
Размер потока оригинала                  : 104 Мбайт (99%)
Дата кодирования                         : UTC 2014-12-18 23:33:10
Дата пометки                             : UTC 2014-12-19 21:26:35
Menus                                    : 2

Меню
Идентификатор                            : 2
Идентификатор кодека                     : text
Продолжительность                        : 2 ч. 8 м.
Язык                                     : English
Дата кодирования                         : UTC 2014-12-18 23:05:34
Дата пометки                             : UTC 2014-12-18 23:05:34
Menu For                                 : 1
Продолжительность оригинала              : 7684900
Количество кадров оригинала              : 19
Размер потока оригинала                  : 316
Счётчик кадров                           : 19
Размер потока                            : 316
00:00:00.000                             : I
00:08:01.790                             : II
00:13:38.457                             : III
00:20:12.499                             : IV
00:24:36.278                             : V
00:28:03.725                             : VI
00:35:53.349                             : VII
00:41:14.202                             : VIII
00:46:24.374                             : IX
00:55:19.594                             : X
01:03:42.330                             : XI
01:13:40.150                             : XII
01:20:41.035                             : XIII
01:28:17.075                             : XIV
01:39:01.383                             : XV
01:44:49.450                             : XVI
01:50:45.807                             : XVII
01:58:22.450                             : XVIII
02:02:38.520                             : XIX
Вид битрейта                             : VBR

Общее
Полное имя                               : 03 Часть третья.m4b
Формат                                   : MPEG-4
Профиль формата                          : Apple audio with iTunes position
Идентификатор кодека                     : M4B  (M4B /mp42/isom)
Размер файла                             : 250 Мбайт
Продолжительность                        : 4 ч. 44 м.
Режим общего битрейта                    : Переменный
Общий поток                              : 123 Кбит/сек
Альбом                                   : Война и Мир. Том 1
Альбом/Исполнитель                       : Толстой Лев Николаевич
Трек                                     : Часть третья
Трек/Положение                           : 3
Трек/Всего                               : 3
Исполнитель                              : Толстой Лев Николаевич
Композитор                               : Клюквин Александр
Жанр                                     : Классическая
Описание                                 : Audiobook created by MarkAble
Дата записи                              : 2013
Дата кодирования                         : UTC 2014-12-15 22:42:57
Дата пометки                             : UTC 2014-12-15 23:21:49
Обложка                                  : Yes

Аудио
Идентификатор                            : 1
Формат                                   : AAC
Формат/Информация                        : Advanced Audio Codec
Профиль формата                          : LC
Идентификатор кодека                     : 40
Продолжительность                        : 4 ч. 44 м.
Вид битрейта                             : Переменный
Битрейт                                  : 121 Кбит/сек
Номинальный битрейт                      : 128 Кбит/сек
Максимальный битрейт                     : 175 Кбит/сек
Каналы                                   : 2 канала
Расположение каналов                     : Front: L R
Частота                                  : 44,1 КГц
Частота кадров                           : 43,066 кадра/сек (1024 spf)
Метод сжатия                             : С потерями
Размер потока                            : 247 Мбайт (99%)
Дата кодирования                         : UTC 2014-12-15 22:42:57
Дата пометки                             : UTC 2014-12-15 23:21:49
Menus                                    : 2

Меню
Идентификатор                            : 2
Идентификатор кодека                     : text
Продолжительность                        : 4 ч. 44 м.
Язык                                     : English
Дата кодирования                         : UTC 2014-12-15 22:12:52
Дата пометки                             : UTC 2014-12-15 22:12:52
Menu For                                 : 1
00:00:00.000                             : I
00:22:23.599                             : II
00:44:27.810                             : III
01:04:20.294                             : IV
01:23:12.197                             : V
01:37:44.595                             : VI
01:51:45.435                             : VII
02:11:43.771                             : VIII
02:23:32.630                             : IX
02:38:33.378                             : X
02:50:32.128                             : XI
03:00:25.398                             : XII
03:16:11.147                             : XIII
03:29:28.311                             : XIV
03:42:01.775                             : XV
03:55:54.025                             : XVI
04:05:11.907                             : XVII
04:16:53.034                             : XVIII
04:33:06.624                             : XIV
Вид битрейта                             : VBR

Общее
Полное имя                               : 03 Часть третья 1.m4b
Формат                                   : MPEG-4
Профиль формата                          : Apple audio with iTunes position
Идентификатор кодека                     : M4B  (M4B /mp42/isom)
Размер файла                             : 198 Мбайт
Продолжительность                        : 3 ч. 42 м.
Режим общего битрейта                    : Переменный
Общий поток                              : 124 Кбит/сек
Альбом                                   : Война и Мир. Том 2
Альбом/Исполнитель                       : Толстой Лев Николаевич
Трек                                     : Часть третья
Трек/Положение                           : 3
Трек/Всего                               : 5
Исполнитель                              : Толстой Лев Николаевич
Композитор                               : Клюквин Александр
Жанр                                     : Классическая
Описание                                 : Audiobook created by MarkAble
Дата записи                              : 2013
Дата кодирования                         : UTC 2014-12-16 20:26:44
Дата пометки                             : UTC 2014-12-16 23:22:37
Обложка                                  : Yes

Аудио
Идентификатор                            : 1
Формат                                   : AAC
Формат/Информация                        : Advanced Audio Codec
Профиль формата                          : LC
Идентификатор кодека                     : 40
Продолжительность                        : 3 ч. 42 м.
Вид битрейта                             : Переменный
Битрейт                                  : 128 Кбит/сек
Максимальный битрейт                     : 181 Кбит/сек
Каналы                                   : 2 канала
Расположение каналов                     : Front: L R
Частота                                  : 44,1 КГц
Частота кадров                           : 43,066 кадра/сек (1024 spf)
Метод сжатия                             : С потерями
Размер потока                            : 195 Мбайт (99%)
Дата кодирования                         : UTC 2014-12-16 20:26:44
Дата пометки                             : UTC 2014-12-16 23:22:37
Menus                                    : 2

Меню
Идентификатор                            : 2
Идентификатор кодека                     : text
Продолжительность                        : 3 ч. 42 м.
Язык                                     : English
Дата кодирования                         : UTC 2014-12-16 20:55:05
Дата пометки                             : UTC 2014-12-16 20:55:05
Menu For                                 : 1
00:00:00.000                             : I
00:07:46.558                             : II
00:14:20.415                             : III
00:20:11.826                             : IV
00:27:56.387                             : V
00:41:31.362                             : VI
00:49:24.863                             : VII
01:01:06.616                             : VIII
01:09:35.830                             : IX
01:15:47.094                             : X
01:29:12.130                             : XI
01:38:11.135                             : XII
01:44:32.313                             : XIII
01:53:33.315                             : XIV
02:01:47.644                             : XV
02:08:45.557                             : XVI
02:17:31.675                             : XVII
02:22:40.384                             : XVIII
02:34:01.356                             : XIX
02:38:59.152                             : XX
02:46:26.833                             : XXI
02:53:43.600                             : XXII
03:02:39.633                             : XXIII
03:17:32.022                             : XXIV
03:24:46.792                             : XXV
03:34:04.675                             : XXVI
Вид битрейта                             : VBR

Общее
Полное имя                               : 03 Часть третья 2.m4b
Формат                                   : MPEG-4
Профиль формата                          : Apple audio with iTunes position
Идентификатор кодека                     : M4B  (M4B /mp42/isom)
Размер файла                             : 262 Мбайт
Продолжительность                        : 5 ч. 26 м.
Режим общего битрейта                    : Переменный
Общий поток                              : 112 Кбит/сек
Альбом                                   : Война и Мир. Том 3
Альбом/Исполнитель                       : Толстой Лев Николаевич
Трек                                     : Часть третья
Трек/Положение                           : 3
Трек/Всего                               : 3
Исполнитель                              : Толстой Лев Николаевич
Композитор                               : Клюквин Александр
Жанр                                     : Классическая
Описание                                 : Audiobook created by MarkAble
Дата записи                              : 2013
Дата кодирования                         : UTC 2014-12-16 22:51:52
Дата пометки                             : UTC 2014-12-16 23:24:03
Обложка                                  : Yes

Аудио
Идентификатор                            : 1
Формат                                   : AAC
Формат/Информация                        : Advanced Audio Codec
Профиль формата                          : LC
Идентификатор кодека                     : 40
Продолжительность                        : 5 ч. 26 м.
Продолжительность оригинала              : 5 ч. 26 м.
Вид битрейта                             : Переменный
Битрейт                                  : 111 Кбит/сек
Номинальный битрейт                      : 128 Кбит/сек
Максимальный битрейт                     : 160 Кбит/сек
Каналы                                   : 2 канала
Расположение каналов                     : Front: L R
Частота                                  : 44,1 КГц
Частота кадров                           : 43,066 кадра/сек (1024 spf)
Метод сжатия                             : С потерями
Размер потока                            : 259 Мбайт (99%)
Размер потока оригинала                  : 259 Мбайт (99%)
Дата кодирования                         : UTC 2014-12-16 22:51:52
Дата пометки                             : UTC 2014-12-16 23:24:03
Menus                                    : 2

Меню
Идентификатор                            : 2
Идентификатор кодека                     : text
Продолжительность                        : 5 ч. 26 м.
Язык                                     : English
Дата кодирования                         : UTC 2014-12-16 22:17:45
Дата пометки                             : UTC 2014-12-16 22:17:45
Menu For                                 : 1
Продолжительность оригинала              : 19588098
Количество кадров оригинала              : 34
Размер потока оригинала                  : 588
Счётчик кадров                           : 34
Размер потока                            : 588
00:00:00.000                             : I
00:08:48.184                             : II
00:17:03.814                             : III
00:23:55.736                             : IV
00:33:31.219                             : V
00:39:56.345                             : VI
00:49:01.968                             : VII
00:59:06.685                             : VIII
01:04:24.218                             : IX
01:12:03.114                             : X
01:19:22.737                             : XI
01:24:49.488                             : XII
01:34:13.872                             : XIII
01:42:34.402                             : XIV
01:48:46.269                             : XV
01:56:40.119                             : XVI
02:07:47.762                             : XVII
02:17:40.033                             : XVIII
02:25:19.347                             : XIX
02:35:41.131                             : XX
02:41:43.896                             : XXI
02:47:25.880                             : XXII
02:53:11.555                             : XXIII
03:03:11.280                             : XXIV
03:12:32.135                             : XXV
03:35:38.621                             : XXVI
03:49:02.357                             : XXVII
03:59:39.860                             : XXVIII
04:06:23.632                             : XXIX
04:30:29.771                             : XXX
04:34:39.989                             : XXXI
04:45:24.041                             : XXXII
05:01:00.084                             : XXXIII
05:16:15.554                             : XXIV
Вид битрейта                             : VBR

Общее
Полное имя                               : 03 Часть третья 3.m4b
Формат                                   : MPEG-4
Профиль формата                          : Apple audio with iTunes position
Идентификатор кодека                     : M4B  (M4B /mp42/isom)
Размер файла                             : 103 Мбайт
Продолжительность                        : 2 ч. 7 м.
Режим общего битрейта                    : Переменный
Общий поток                              : 114 Кбит/сек
Альбом                                   : Война и Мир. Том 4
Альбом/Исполнитель                       : Толстой Лев Николаевич
Трек                                     : Часть третья
Трек/Положение                           : 3
Трек/Всего                               : 6
Исполнитель                              : Толстой Лев Николаевич
Композитор                               : Клюквин Александр
Жанр                                     : Классическая
Описание                                 : Audiobook created by MarkAble
Дата записи                              : 2013
Дата кодирования                         : UTC 2014-12-18 23:38:32
Дата пометки                             : UTC 2014-12-19 21:26:49
Обложка                                  : Yes

Аудио
Идентификатор                            : 1
Формат                                   : AAC
Формат/Информация                        : Advanced Audio Codec
Профиль формата                          : LC
Идентификатор кодека                     : 40
Продолжительность                        : 2 ч. 7 м.
Продолжительность оригинала              : 2 ч. 7 м.
Вид битрейта                             : Переменный
Битрейт                                  : 112 Кбит/сек
Номинальный битрейт                      : 128 Кбит/сек
Максимальный битрейт                     : 159 Кбит/сек
Каналы                                   : 2 канала
Расположение каналов                     : Front: L R
Частота                                  : 44,1 КГц
Частота кадров                           : 43,066 кадра/сек (1024 spf)
Метод сжатия                             : С потерями
Размер потока                            : 102 Мбайт (98%)
Размер потока оригинала                  : 102 Мбайт (98%)
Дата кодирования                         : UTC 2014-12-18 23:38:32
Дата пометки                             : UTC 2014-12-19 21:26:49
Menus                                    : 2

Меню
Идентификатор                            : 2
Идентификатор кодека                     : text
Продолжительность                        : 2 ч. 7 м.
Язык                                     : English
Дата кодирования                         : UTC 2014-12-18 23:07:11
Дата пометки                             : UTC 2014-12-18 23:07:11
Menu For                                 : 1
Продолжительность оригинала              : 7636811
Количество кадров оригинала              : 19
Размер потока оригинала                  : 316
Счётчик кадров                           : 19
Размер потока                            : 316
00:00:00.000                             : I
00:07:41.520                             : II
00:14:02.977                             : III
00:20:50.882                             : IV
00:29:11.295                             : V
00:37:30.919                             : VI
00:42:42.043                             : VII
00:50:52.402                             : VIII
00:56:04.293                             : IX
01:02:42.492                             : X
01:12:07.132                             : XI
01:18:30.168                             : XII
01:26:03.700                             : XIII
01:33:48.401                             : XIV
01:37:24.927                             : XV
01:43:33.939                             : XVI
01:47:29.366                             : XVII
01:51:31.411                             : XVIII
01:55:47.527                             : XIX
Вид битрейта                             : VBR

Общее
Полное имя                               : 04 Часть четвёртая.m4b
Формат                                   : MPEG-4
Профиль формата                          : Apple audio with iTunes position
Идентификатор кодека                     : M4B  (M4B /mp42/isom)
Размер файла                             : 126 Мбайт
Продолжительность                        : 2 ч. 21 м.
Режим общего битрейта                    : Переменный
Общий поток                              : 124 Кбит/сек
Альбом                                   : Война и Мир. Том 2
Альбом/Исполнитель                       : Толстой Лев Николаевич
Трек                                     : Часть четвёртая
Трек/Положение                           : 4
Трек/Всего                               : 5
Исполнитель                              : Толстой Лев Николаевич
Композитор                               : Клюквин Александр
Жанр                                     : Классическая
Описание                                 : Audiobook created by MarkAble
Дата записи                              : 2013
Дата кодирования                         : UTC 2014-12-16 20:34:59
Дата пометки                             : UTC 2014-12-16 23:22:38
Обложка                                  : Yes

Аудио
Идентификатор                            : 1
Формат                                   : AAC
Формат/Информация                        : Advanced Audio Codec
Профиль формата                          : LC
Идентификатор кодека                     : 40
Продолжительность                        : 2 ч. 21 м.
Вид битрейта                             : Переменный
Битрейт                                  : 128 Кбит/сек
Максимальный битрейт                     : 187 Кбит/сек
Каналы                                   : 2 канала
Расположение каналов                     : Front: L R
Частота                                  : 44,1 КГц
Частота кадров                           : 43,066 кадра/сек (1024 spf)
Метод сжатия                             : С потерями
Размер потока                            : 125 Мбайт (99%)
Дата кодирования                         : UTC 2014-12-16 20:34:59
Дата пометки                             : UTC 2014-12-16 23:22:38
Menus                                    : 2

Меню
Идентификатор                            : 2
Идентификатор кодека                     : text
Продолжительность                        : 2 ч. 21 м.
Язык                                     : English
Дата кодирования                         : UTC 2014-12-16 20:57:38
Дата пометки                             : UTC 2014-12-16 20:57:38
Menu For                                 : 1
00:00:00.000                             : I
00:10:21.365                             : II
00:15:10.222                             : III
00:21:54.226                             : IV
00:34:52.466                             : V
00:45:40.674                             : VI
01:01:24.704                             : VII
01:21:53.597                             : VIII
01:29:23.275                             : IX
01:38:10.368                             : X
01:57:20.870                             : XI
02:07:22.430                             : XII
02:14:37.200                             : XIII
Вид битрейта                             : VBR

Общее
Полное имя                               : 04 Часть четвёртая 1.m4b
Формат                                   : MPEG-4
Профиль формата                          : Apple audio with iTunes position
Идентификатор кодека                     : M4B  (M4B /mp42/isom)
Размер файла                             : 130 Мбайт
Продолжительность                        : 2 ч. 44 м.
Режим общего битрейта                    : Переменный
Общий поток                              : 111 Кбит/сек
Альбом                                   : Война и Мир. Том 4
Альбом/Исполнитель                       : Толстой Лев Николаевич
Трек                                     : Часть четвёртая
Трек/Положение                           : 4
Трек/Всего                               : 6
Исполнитель                              : Толстой Лев Николаевич
Композитор                               : Клюквин Александр
Жанр                                     : Классическая
Описание                                 : Audiobook created by MarkAble
Дата записи                              : 2013
Дата кодирования                         : UTC 2014-12-18 23:43:35
Дата пометки                             : UTC 2014-12-19 21:26:58
Обложка                                  : Yes

Аудио
Идентификатор                            : 1
Формат                                   : AAC
Формат/Информация                        : Advanced Audio Codec
Профиль формата                          : LC
Идентификатор кодека                     : 40
Продолжительность                        : 2 ч. 44 м.
Вид битрейта                             : Переменный
Битрейт                                  : 109 Кбит/сек
Номинальный битрейт                      : 128 Кбит/сек
Максимальный битрейт                     : 156 Кбит/сек
Каналы                                   : 2 канала
Расположение каналов                     : Front: L R
Частота                                  : 44,1 КГц
Частота кадров                           : 43,066 кадра/сек (1024 spf)
Метод сжатия                             : С потерями
Размер потока                            : 128 Мбайт (98%)
Дата кодирования                         : UTC 2014-12-18 23:43:35
Дата пометки                             : UTC 2014-12-19 21:26:58
Menus                                    : 2

Меню
Идентификатор                            : 2
Идентификатор кодека                     : text
Продолжительность                        : 2 ч. 44 м.
Язык                                     : English
Дата кодирования                         : UTC 2014-12-19 20:04:27
Дата пометки                             : UTC 2014-12-19 20:04:27
Menu For                                 : 1
00:00:00.000                             : I
00:10:42.310                             : II
00:16:17.513                             : III
00:23:27.036                             : IV
00:31:13.270                             : V
00:39:55.161                             : VI
00:47:52.889                             : VII
00:53:23.378                             : VIII
01:02:06.756                             : IX
01:07:40.682                             : X
01:21:14.820                             : XI
01:25:32.957                             : XII
01:33:20.583                             : XIII
01:47:10.906                             : XIV
01:53:13.996                             : XV
02:01:45.927                             : XVI
02:08:47.810                             : XVII
02:22:37.204                             : XVIII
02:35:47.774                             : XIX
02:40:34.238                             : XX
Вид битрейта                             : VBR

Общее
Полное имя                               : 05 Часть пятая.m4b
Формат                                   : MPEG-4
Профиль формата                          : Apple audio with iTunes position
Идентификатор кодека                     : M4B  (M4B /mp42/isom)
Размер файла                             : 179 Мбайт
Продолжительность                        : 3 ч. 21 м.
Режим общего битрейта                    : Переменный
Общий поток                              : 124 Кбит/сек
Альбом                                   : Война и Мир. Том 2
Альбом/Исполнитель                       : Толстой Лев Николаевич
Трек                                     : Часть пятая
Трек/Положение                           : 5
Трек/Всего                               : 5
Исполнитель                              : Толстой Лев Николаевич
Композитор                               : Клюквин Александр
Жанр                                     : Классическая
Описание                                 : Audiobook created by MarkAble
Дата записи                              : 2013
Дата кодирования                         : UTC 2014-12-16 20:39:55
Дата пометки                             : UTC 2014-12-16 23:22:38
Обложка                                  : Yes

Аудио
Идентификатор                            : 1
Формат                                   : AAC
Формат/Информация                        : Advanced Audio Codec
Профиль формата                          : LC
Идентификатор кодека                     : 40
Продолжительность                        : 3 ч. 21 м.
Вид битрейта                             : Переменный
Битрейт                                  : 128 Кбит/сек
Максимальный битрейт                     : 186 Кбит/сек
Каналы                                   : 2 канала
Расположение каналов                     : Front: L R
Частота                                  : 44,1 КГц
Частота кадров                           : 43,066 кадра/сек (1024 spf)
Метод сжатия                             : С потерями
Размер потока                            : 177 Мбайт (99%)
Дата кодирования                         : UTC 2014-12-16 20:39:55
Дата пометки                             : UTC 2014-12-16 23:22:38
Menus                                    : 2

Меню
Идентификатор                            : 2
Идентификатор кодека                     : text
Продолжительность                        : 3 ч. 21 м.
Язык                                     : English
Дата кодирования                         : UTC 2014-12-16 20:59:05
Дата пометки                             : UTC 2014-12-16 20:59:05
Menu For                                 : 1
00:00:00.000                             : I
00:12:56.266                             : II
00:22:20.093                             : III
00:35:53.047                             : IV
00:42:55.928                             : V
00:54:27.813                             : VI
01:02:11.377                             : VII
01:11:20.320                             : VIII
01:20:44.147                             : IX
01:33:21.489                             : X
01:41:53.698                             : XI
01:47:44.110                             : XII
01:55:49.524                             : XIII
02:03:41.051                             : XIV
02:11:02.787                             : XV
02:23:04.440                             : XVI
02:34:27.386                             : XVII
02:40:07.883                             : XVIII
02:48:14.295                             : XIX
02:57:26.210                             : XX
03:05:11.770                             : XXI
03:14:32.624                             : XX
Вид битрейта                             : VBR

Общее
Полное имя                               : 05 Эпилог. Часть первая.m4b
Формат                                   : MPEG-4
Профиль формата                          : Apple audio with iTunes position
Идентификатор кодека                     : M4B  (M4B /mp42/isom)
Размер файла                             : 128 Мбайт
Продолжительность                        : 2 ч. 35 м.
Режим общего битрейта                    : Переменный
Общий поток                              : 115 Кбит/сек
Альбом                                   : Война и Мир. Том 4
Альбом/Исполнитель                       : Толстой Лев Николаевич
Трек                                     : Эпилог. Часть первая
Трек/Положение                           : 5
Трек/Всего                               : 6
Исполнитель                              : Толстой Лев Николаевич
Композитор                               : Клюквин Александр
Жанр                                     : Классическая
Описание                                 : Audiobook created by MarkAble
Дата записи                              : 2013
Дата кодирования                         : UTC 2014-12-18 23:49:36
Дата пометки                             : UTC 2014-12-19 21:27:24
Обложка                                  : Yes

Аудио
Идентификатор                            : 1
Формат                                   : AAC
Формат/Информация                        : Advanced Audio Codec
Профиль формата                          : LC
Идентификатор кодека                     : 40
Продолжительность                        : 2 ч. 35 м.
Вид битрейта                             : Переменный
Битрейт                                  : 114 Кбит/сек
Номинальный битрейт                      : 128 Кбит/сек
Максимальный битрейт                     : 156 Кбит/сек
Каналы                                   : 2 канала
Расположение каналов                     : Front: L R
Частота                                  : 44,1 КГц
Частота кадров                           : 43,066 кадра/сек (1024 spf)
Метод сжатия                             : С потерями
Размер потока                            : 127 Мбайт (99%)
Дата кодирования                         : UTC 2014-12-18 23:49:36
Дата пометки                             : UTC 2014-12-19 21:27:24
Menus                                    : 2

Меню
Идентификатор                            : 2
Идентификатор кодека                     : text
Продолжительность                        : 2 ч. 35 м.
Язык                                     : English
Дата кодирования                         : UTC 2014-12-18 23:13:27
Дата пометки                             : UTC 2014-12-18 23:13:27
Menu For                                 : 1
00:00:00.000                             : I
00:08:28.075                             : II
00:13:23.038                             : III
00:25:38.530                             : IV
00:32:27.039                             : V
00:41:01.570                             : VI
00:51:43.184                             : VII
00:59:44.928                             : VIII
01:08:20.876                             : IX
01:21:07.970                             : X
01:33:12.201                             : XI
01:40:40.950                             : XII
01:51:59.762                             : XIII
01:59:57.675                             : XIV
02:12:32.462                             : XV
02:23:34.997                             : XVI
Вид битрейта                             : VBR

Общее
Полное имя                               : 06 Эпилог. Часть вторая.m4b
Формат                                   : MPEG-4
Профиль формата                          : Apple audio with iTunes position
Идентификатор кодека                     : M4B  (M4B /mp42/isom)
Размер файла                             : 104 Мбайт
Продолжительность                        : 2 ч. 3 м.
Режим общего битрейта                    : Переменный
Общий поток                              : 119 Кбит/сек
Альбом                                   : Война и Мир. Том 4
Альбом/Исполнитель                       : Толстой Лев Николаевич
Трек                                     : Эпилог. Часть вторая
Трек/Положение                           : 6
Трек/Всего                               : 6
Исполнитель                              : Толстой Лев Николаевич
Композитор                               : Клюквин Александр
Жанр                                     : Классическая
Описание                                 : Audiobook created by MarkAble
Дата записи                              : 2013
Дата кодирования                         : UTC 2014-12-18 23:56:10
Дата пометки                             : UTC 2014-12-19 21:27:07
Обложка                                  : Yes

Аудио
Идентификатор                            : 1
Формат                                   : AAC
Формат/Информация                        : Advanced Audio Codec
Профиль формата                          : LC
Идентификатор кодека                     : 40
Продолжительность                        : 2 ч. 3 м.
Вид битрейта                             : Переменный
Битрейт                                  : 117 Кбит/сек
Номинальный битрейт                      : 128 Кбит/сек
Максимальный битрейт                     : 158 Кбит/сек
Каналы                                   : 2 канала
Расположение каналов                     : Front: L R
Частота                                  : 44,1 КГц
Частота кадров                           : 43,066 кадра/сек (1024 spf)
Метод сжатия                             : С потерями
Размер потока                            : 103 Мбайт (99%)
Дата кодирования                         : UTC 2014-12-18 23:56:10
Дата пометки                             : UTC 2014-12-19 21:27:07
Menus                                    : 2

Меню
Идентификатор                            : 2
Идентификатор кодека                     : text
Продолжительность                        : 2 ч. 3 м.
Язык                                     : English
Дата кодирования                         : UTC 2014-12-18 23:15:23
Дата пометки                             : UTC 2014-12-18 23:15:23
Menu For                                 : 1
00:00:00.000                             : I
00:11:36.296                             : II
00:22:36.416                             : III
00:28:28.129                             : IV
00:45:12.183                             : V
00:52:54.190                             : VI
01:02:57.004                             : VII
01:12:01.349                             : VIII
01:23:43.846                             : IX
01:39:06.142                             : X
01:53:05.730                             : XI
01:57:15.901                             : XII
Вид битрейта                             : VBR

Время раздачи: с 18:00 до 23:00, в остальное время - по возможности (до появления первых 3-5 скачавших)
[NNMClub.to]_Tolstoy Lev Nikolaevich.torrent
 Торрент: Платиновая раздача  Зарегистрирован
 
Скачать


Примагнититься
 Зарегистрирован:   12 Май 2017 18:58:01
 Размер:   3 GB  (
 Рейтинг:   4,7 (Голосов: 29)
 Поблагодарили:   89
 Проверка:   Оформление проверено модератором 13 Май 2017 18:23:33
Как cкачать  ·  Как раздать  ·  Правильно оформить  ·  Поднять ратио!  
Siam cat
Стаж: 9 лет 1 мес.
Сообщений: 5
Ratio: 6,961
100%
mali.gif
Давно хотел прочитать, нет времени((( хоть прослушаю! Спасибо!
UniX[RX]
Стаж: 13 лет
Сообщений: 2
Ratio: 18,83
41.67%
Залит только 2-й том!
senyaarseniy
Стаж: 11 лет 4 мес.
Сообщений: 59
Ratio: 0,653
4.03%
Ну так чё там - остальное добавят?

UPD - чувак написал даже не проверив - полностью книга залита -_-
Показать сообщения:   
Начать новую тему   Ответить на тему    Торрент-трекер NNM-Club -> Аудио и Видео -> Аудиокниги (AAC) Часовой пояс: GMT + 3
Страница 1 из 1