Классический форум-трекер
canvas not supported
Нас вместе: 4 094 042

Kevin Kern - Endless Blue Sky (2009) [APE] <New Age, Neo Classic>


 
 
RSS
Начать новую тему   Ответить на тему    Торрент-трекер NNM-Club -> Классика -> В обработке/Classical Crossover/Neoclassical (Lossless)
Автор Сообщение
slava03 ®
Uploaders 100+
 
Стаж: 12 лет 7 мес.
Сообщений: 846
Ratio: 1526,324
Поблагодарили: 11531
100%
Kevin Kern - Endless Blue Sky (2009)
ImageГод: 2009
Жанр: New Age, Neo Classic
Продолжительность: 01:01:24
Время раздачи 24/7

Кодек: APE
Битрейт: 569 Kbit/s

Треклист:
01. Joy of the Journey 3:18
02. Velvet Green 3:52
03. Endless Blue Sky 6:29
04. Sunset Prayer 2:52
05. Light Spirit 4:23
06. Seen in a Dream 4:54
07. The Skipping Song 4:44
08. Caring Friend 5:00
09. Wending Our Way Home 4:31
10. The Glistening Pond 5:16
11. Gifts Along the Way 3:54
12. Joy of the Journey (Reprise) 1:58
13. Always Near 5:19


Легкая и воздушная музыка пианиста, композитора и аранжировщика Кевина Керна в альбоме “Бесконечное Синее Небо” полностью оправдывает название альбома. Это первый диск Кевина Керна после, более чем 3-х летнего молчания. “Моя любовь к кинематографическому письму, мои сильные классические корни и глубокая оценка работ великих поэтов - песенников были источником вдохновения для этих мелодий.”
Exact Audio Copy V0.99 prebeta 4 from 23. January 2008

Отчёт EAC об извлечении, выполненном 17. февраля 2009, 14:39

Kevin Kern / Endless Blue Sky

Дисковод: _NEC DVD_RW ND-3520A Adapter: 2 ID: 0

Режим чтения : Достоверность
Использование точного потока : Да
Отключение кэша аудио : Да
Использование указателей C2 : Нет

Коррекция смещения при чтении : 48
Способность читать области Lead-in и Lead-out : Нет
Заполнение пропущенных сэмплов тишиной : Да
Удаление блоков с тишиной в начале и конце : Нет
При вычислениях CRC использовались нулевые сэмплы : Да
Интерфейс : Установленный внешний ASPI-интерфейс

Выходной формат : Внутренние WAV-операции
Формат сэмплов : 44.100 Гц; 16 бит; стерео

TOC извлечённого CD

Трек | Старт | Длительность | Начальный сектор | Конечный сектор
---------------------------------------------------------------------
1 | 0:00.00 | 3:18.66 | 0 | 14915
2 | 3:18.66 | 3:53.08 | 14916 | 32398
3 | 7:11.74 | 6:29.35 | 32399 | 61608
4 | 13:41.34 | 2:51.74 | 61609 | 74507
5 | 16:33.33 | 4:23.36 | 74508 | 94268
6 | 20:56.69 | 4:54.32 | 94269 | 116350
7 | 25:51.26 | 4:44.36 | 116351 | 137686
8 | 30:35.62 | 4:59.34 | 137687 | 160145
9 | 35:35.21 | 4:31.40 | 160146 | 180510
10 | 40:06.61 | 5:16.09 | 180511 | 204219
11 | 45:22.70 | 4:50.04 | 204220 | 225973
12 | 50:12.74 | 3:53.62 | 225974 | 243510
13 | 54:06.61 | 1:58.13 | 243511 | 252373
14 | 56:04.74 | 5:19.29 | 252374 | 276327

Характеристики диапазона извлечения и сообщения об ошибках

Выбранный диапазон

Имя файла G:\Samsung\Music\Torrent\Kevin Kern - Endless Blue Sky\Kevin Kern - Endless Blue Sky.wav

Пиковый уровень 97.7 %
Качество диапазона 99.9 %
CRC теста A9485EBB
CRC копии A9485EBB
Копирование... OK

Ошибок не произошло

Конец отчёта
AUDIOCHECKER v2.0 beta (build 457) - by Dester - opdester@freemail.hu
~~~~~~~~~~~~~~~~~~~~~~~~~~~~~~~~~~
-=== НЕ РЕДАКТИРУЙТЕ ЭТОТ ФАЙЛ! ===-

Путь: ...\Kevin Kern - Endless Blue Sky (2009) [APE] New Age, Neo Classic

1 -=- Kevin Kern - Endless Blue Sky.ape -=- CDDA (76%)

134376276
Kevin Kern (8 albums) Lossless
[NNM-Club.ru] Kevin Kern - Endless Blue Sky (2009).torrent
 Торрент: Платиновая раздача  Зарегистрирован
 
Скачать


Примагнититься
 Зарегистрирован:   11 Ноя 2019 18:14:27
 Размер:   252 MB  (
 Рейтинг:   4,9 (Голосов: 24)
 Поблагодарили:   104
 Проверка:   Оформление проверено модератором 11 Ноя 2019 22:59:21
Как cкачать  ·  Как раздать  ·  Правильно оформить  ·  Поднять ратио!  
tuxman
 

Online
Стаж: 10 лет 11 мес.
Сообщений: 771
Ratio: 13,094
100%
Откуда: Пензенская обл.
russia.gif
Красиво ... :новый_год:
Виктор01
Uploader 700+
Стаж: 9 лет 4 мес.
Сообщений: 148
Ratio: 1654,62
100%
ukraine.gif
Спасибо!!!!!!!!!!
graden1812
Стаж: 5 лет 1 мес.
Сообщений: 2
Ratio: 0,044
0%
Спасибо!!! Очень завораживающая музыка!
NorthOn
 
Админ
Стаж: 13 лет 6 мес.
Сообщений: 13315
Ratio: 1096,266
Поблагодарили: 14452
100%
nnm-club.gif
Торрент обновлен в рамках акции Включаем DHT в древних раздачах
Теперь вам нужно его скачать и открыть в торрент-клиенте, указав в качестве места сохранения раздаваемый файл или папку.

_________________
Либо я найду путь, либо проложу его...
Показать сообщения:   
Начать новую тему   Ответить на тему    Торрент-трекер NNM-Club -> Классика -> В обработке/Classical Crossover/Neoclassical (Lossless) Часовой пояс: GMT + 3
Страница 1 из 1