Классический форум-трекер
canvas not supported
Нас вместе: 4 093 920

Emin - На краю (2013) [MP3|~317 кб/с]<Pop>


 
 
RSS
Начать новую тему   Ответить на тему    Торрент-трекер NNM-Club -> Pop -> Отечественная поп-музыка
Автор Сообщение
R.Clandestin ®
Стаж: 10 лет 5 мес.
Сообщений: 262
Ratio: 6,372
Поблагодарили: 2033
5.26%
usa.gif
Emin - На краю (2013)
Год: 2013
Страна: Azerbaijan / Russia / USA
Жанр: Pop
Продолжительность: 00:46:07

Кодек: MP3
Битрейт: ~317 кб/с
Тип битрейта: VBR V0

Треклист:
01. Амор
02. На краю
03. Звёзды над Москвой
04. Сон не про нас
05. Ангел бес
06. Не ищи меня
07. Я лучше всех живу
08. Ты не одна
09. Сердце бьётся
10. В сентябре
11. Лепестки опавших роз
12. Синяя вечность (feat. Муслим Магомаев)

Первый русскоязычный альбом EMINa «На краю».


Эмин Агаларов, коммерческий директор компании «Крокус Интернешнл», родился в Баку. Восемь лет проучился в Москве, затем еще пару лет - в частной швейцарской школе. В 15 лет переехал с родителями в США, где окончил школу и поступил в институт. Там же открыл свое первое дело — интернет-магазин и обувную лавку на Манхэттене. В 2001 году Эмин вернулся в Россию и то ли по просьбе, то ли по настоянию отца занял должность коммерческого директора «Крокус Сити Молла». Тогда Эмину был двадцать один год.\

/»КоммерсантЪ»

Мы живём в мире, всё больше похожем на то будущее, о котором cовсем недавно снимали пугающие футуристические фильмы - более технологичном, быстром, бездушном. Поэтому люди всё больше ощущают нехватку подлинных чувств и эмоций, которыми была так богата ранняя добрая англо - американская культура.

Вновь востребованы настоящие певцы, такие как Тони Беннет, Пол Анка, Нил Даймонд, которые, казалось, уже были списаны с корабля современности, оснащенного новейшими компьютерными технологиями. Старые шлягеры в последние годы перепевают многие рок-и поп-певцы, от Брайна Ферри и Джорджа Майкла до Роял Джигалос и Бенни Бенасси, и это уже стало походить на настоящую моду.

EMIN работает на этом же поле, используя чуть более жесткие аранжировки-красивым баритоном поёт он то, что всегда называлось love songs. EMIN же предпочитает называть этот стиль иначе: Сontemporary Rock Ballad (C.R.B.)

EMIN обращается к творчеству своих любимых исполнителей Элвиса Пресли - впрямую, Френка Синатры и Адриано Челентано - опосредовано. Цель этого проекта носит от части просветительский характер, ведь над альбомом работала большая команда высокопрофессиональных музыкантов во главе с продюсером и аранжировщиком Владимиром Рацкевичем, создателем первых, теперь уже легендарных, московских рок-групп «Рубиновая Атака», «Високосное Лето» и «Цитадель», а позднее авторитетного электронного экспериментатора - «Вектор», «zoom.ra».

Половина номеров альбома - это кавер версии песен из репертуара Элвиса Пресли, в том числе таких, как «Welcome To My World» и песня «Until Its Time For You To Go» североамериканской индейской фолк-певицы Баффи Сейнт - Мари, ставшей в начале 70-х большим хитом в исполнении Короля. Автор другой половины песен EMIN. Песни написаны на английском языке, которым EMIN владеет безупречно. Направление и настроение задаётся первым же треком - ностальгической балладой, давшей название всему альбому - Still.

Альбом завершается удачным «выходом» - ритмичной композицией с испанским колоритом «Tonight», чье более электронное звучание уравновешивается гитарой в стиле фламенко. Страстное увлечение музыкой, которое занимает большую часть жизни, EMIN привёз из Америки. Там наряду с обучением в университете он приобрёл уникальный опыт и исполнительское мастерство, выступая в клубах Нью-Йорка и Нью-Джерси. Welcome to EMIN music world!
Код:

Общее
Полное имя                               : C:\Users\PASHA\Desktop\Emin - На краю (2014)\01. Амор.mp3
Формат                                   : MPEG Audio
Размер файла                             : 8,35 Мбайт
Продолжительность                        : 3 м. 32 с.
Режим общего битрейта                    : Переменный
Общий поток                              : 316 Кбит/сек
Альбом                                   : На Краю
Альбом/Исполнитель                       : Emin
Часть/Положение                          : 1
Часть/Всего                              : 1
Трек                                     : Амор
Трек/Положение                           : 01
Трек/Всего                               : 12
Исполнитель                              : Emin
Жанр                                     : Pop
Дата записи                              : 2013
Библиотека кодирования                   : LAME3.99r
Обложка                                  : Yes
Тип обложки                              : Cover (front)
MIME-тип обложки                         : image/jpeg
DISCNUMBER                               : 1/1
ALBUMARTIST                              : Emin
COVER ART (FRONT)                        : Cover Art (Front).jpg

Аудио
Формат                                   : MPEG Audio
Версия формата                           : Version 1
Профиль формата                          : Layer 3
Режим                                    : Joint stereo
Расширение режима                        : MS Stereo
Продолжительность                        : 3 м. 32 с.
Вид битрейта                             : Переменный
Битрейт                                  : 316 Кбит/сек
Каналы                                   : 2 канала
Частота                                  : 44,1 КГц
Метод сжатия                             : С потерями
Размер потока                            : 8,01 Мбайт (96%)
Библиотека кодирования                   : LAME3.99r
Настройки программы                      : -m j -V 2 -q 0 -lowpass 18.5 --vbr-new

Общее
Полное имя                               : C:\Users\PASHA\Desktop\Emin - На краю (2014)\02. На краю.mp3
Формат                                   : MPEG Audio
Размер файла                             : 8,90 Мбайт
Продолжительность                        : 3 м. 46 с.
Режим общего битрейта                    : Переменный
Общий поток                              : 317 Кбит/сек
Альбом                                   : На Краю
Альбом/Исполнитель                       : Emin
Часть/Положение                          : 1
Часть/Всего                              : 1
Трек                                     : На Краю
Трек/Положение                           : 02
Трек/Всего                               : 12
Исполнитель                              : Emin
Жанр                                     : Pop
Дата записи                              : 2013
Библиотека кодирования                   : LAME3.99r
Обложка                                  : Yes
Тип обложки                              : Cover (front)
MIME-тип обложки                         : image/jpeg
DISCNUMBER                               : 1/1
ALBUMARTIST                              : Emin
COVER ART (FRONT)                        : Cover Art (Front).jpg

Аудио
Формат                                   : MPEG Audio
Версия формата                           : Version 1
Профиль формата                          : Layer 3
Режим                                    : Joint stereo
Продолжительность                        : 3 м. 46 с.
Вид битрейта                             : Переменный
Битрейт                                  : 317 Кбит/сек
Каналы                                   : 2 канала
Частота                                  : 44,1 КГц
Метод сжатия                             : С потерями
Размер потока                            : 8,56 Мбайт (96%)
Библиотека кодирования                   : LAME3.99r
Настройки программы                      : -m j -V 2 -q 0 -lowpass 18.5 --vbr-new

Общее
Полное имя                               : C:\Users\PASHA\Desktop\Emin - На краю (2014)\03. Звёзды над Москвой.mp3
Формат                                   : MPEG Audio
Размер файла                             : 9,28 Мбайт
Продолжительность                        : 3 м. 56 с.
Режим общего битрейта                    : Переменный
Общий поток                              : 317 Кбит/сек
Альбом                                   : На Краю
Альбом/Исполнитель                       : Emin
Часть/Положение                          : 1
Часть/Всего                              : 1
Трек                                     : Звёзды Над Москвой
Трек/Положение                           : 03
Трек/Всего                               : 12
Исполнитель                              : Emin
Жанр                                     : Pop
Дата записи                              : 2013
Библиотека кодирования                   : LAME3.99r
Обложка                                  : Yes
Тип обложки                              : Cover (front)
MIME-тип обложки                         : image/jpeg
DISCNUMBER                               : 1/1
ALBUMARTIST                              : Emin
COVER ART (FRONT)                        : Cover Art (Front).jpg

Аудио
Формат                                   : MPEG Audio
Версия формата                           : Version 1
Профиль формата                          : Layer 3
Режим                                    : Joint stereo
Продолжительность                        : 3 м. 56 с.
Вид битрейта                             : Переменный
Битрейт                                  : 317 Кбит/сек
Каналы                                   : 2 канала
Частота                                  : 44,1 КГц
Метод сжатия                             : С потерями
Размер потока                            : 8,94 Мбайт (96%)
Библиотека кодирования                   : LAME3.99r
Настройки программы                      : -m j -V 2 -q 0 -lowpass 18.5 --vbr-new

Общее
Полное имя                               : C:\Users\PASHA\Desktop\Emin - На краю (2014)\04. Сон не про нас.mp3
Формат                                   : MPEG Audio
Размер файла                             : 9,27 Мбайт
Продолжительность                        : 3 м. 56 с.
Режим общего битрейта                    : Переменный
Общий поток                              : 317 Кбит/сек
Альбом                                   : На Краю
Альбом/Исполнитель                       : Emin
Часть/Положение                          : 1
Часть/Всего                              : 1
Трек                                     : Сон Не Про Нас
Трек/Положение                           : 04
Трек/Всего                               : 12
Исполнитель                              : Emin
Жанр                                     : Pop
Дата записи                              : 2013
Библиотека кодирования                   : LAME3.99r
Обложка                                  : Yes
Тип обложки                              : Cover (front)
MIME-тип обложки                         : image/jpeg
DISCNUMBER                               : 1/1
ALBUMARTIST                              : Emin
COVER ART (FRONT)                        : Cover Art (Front).jpg

Аудио
Формат                                   : MPEG Audio
Версия формата                           : Version 1
Профиль формата                          : Layer 3
Режим                                    : Joint stereo
Продолжительность                        : 3 м. 56 с.
Вид битрейта                             : Переменный
Битрейт                                  : 317 Кбит/сек
Каналы                                   : 2 канала
Частота                                  : 44,1 КГц
Метод сжатия                             : С потерями
Размер потока                            : 8,93 Мбайт (96%)
Библиотека кодирования                   : LAME3.99r
Настройки программы                      : -m j -V 2 -q 0 -lowpass 18.5 --vbr-new

Общее
Полное имя                               : C:\Users\PASHA\Desktop\Emin - На краю (2014)\05. Ангел бес.mp3
Формат                                   : MPEG Audio
Размер файла                             : 10,3 Мбайт
Продолжительность                        : 4 м. 22 с.
Режим общего битрейта                    : Переменный
Общий поток                              : 317 Кбит/сек
Альбом                                   : На Краю
Альбом/Исполнитель                       : Emin
Часть/Положение                          : 1
Часть/Всего                              : 1
Трек                                     : Ангел Бес
Трек/Положение                           : 05
Трек/Всего                               : 12
Исполнитель                              : Emin
Жанр                                     : Pop
Дата записи                              : 2013
Библиотека кодирования                   : LAME3.99r
Обложка                                  : Yes
Тип обложки                              : Cover (front)
MIME-тип обложки                         : image/jpeg
DISCNUMBER                               : 1/1
ALBUMARTIST                              : Emin
COVER ART (FRONT)                        : Cover Art (Front).jpg

Аудио
Формат                                   : MPEG Audio
Версия формата                           : Version 1
Профиль формата                          : Layer 3
Режим                                    : Joint stereo
Продолжительность                        : 4 м. 22 с.
Вид битрейта                             : Переменный
Битрейт                                  : 317 Кбит/сек
Каналы                                   : 2 канала
Частота                                  : 44,1 КГц
Метод сжатия                             : С потерями
Размер потока                            : 9,94 Мбайт (97%)
Библиотека кодирования                   : LAME3.99r
Настройки программы                      : -m j -V 2 -q 0 -lowpass 18.5 --vbr-new

Общее
Полное имя                               : C:\Users\PASHA\Desktop\Emin - На краю (2014)\06. Не ищи меня.mp3
Формат                                   : MPEG Audio
Размер файла                             : 8,70 Мбайт
Продолжительность                        : 3 м. 41 с.
Режим общего битрейта                    : Переменный
Общий поток                              : 317 Кбит/сек
Альбом                                   : На Краю
Альбом/Исполнитель                       : Emin
Часть/Положение                          : 1
Часть/Всего                              : 1
Трек                                     : Не Ищи Меня
Трек/Положение                           : 06
Трек/Всего                               : 12
Исполнитель                              : Emin
Жанр                                     : Pop
Дата записи                              : 2013
Библиотека кодирования                   : LAME3.99r
Обложка                                  : Yes
Тип обложки                              : Cover (front)
MIME-тип обложки                         : image/jpeg
DISCNUMBER                               : 1/1
ALBUMARTIST                              : Emin
COVER ART (FRONT)                        : Cover Art (Front).jpg

Аудио
Формат                                   : MPEG Audio
Версия формата                           : Version 1
Профиль формата                          : Layer 3
Режим                                    : Joint stereo
Продолжительность                        : 3 м. 41 с.
Вид битрейта                             : Переменный
Битрейт                                  : 317 Кбит/сек
Каналы                                   : 2 канала
Частота                                  : 44,1 КГц
Метод сжатия                             : С потерями
Размер потока                            : 8,35 Мбайт (96%)
Библиотека кодирования                   : LAME3.99r
Настройки программы                      : -m j -V 2 -q 0 -lowpass 18.5 --vbr-new

Общее
Полное имя                               : C:\Users\PASHA\Desktop\Emin - На краю (2014)\07. Я лучше всех живу.mp3
Формат                                   : MPEG Audio
Размер файла                             : 8,30 Мбайт
Продолжительность                        : 3 м. 30 с.
Режим общего битрейта                    : Переменный
Общий поток                              : 317 Кбит/сек
Альбом                                   : На Краю
Альбом/Исполнитель                       : Emin
Часть/Положение                          : 1
Часть/Всего                              : 1
Трек                                     : Я Лучше Всех Живу
Трек/Положение                           : 07
Трек/Всего                               : 12
Исполнитель                              : Emin
Жанр                                     : Pop
Дата записи                              : 2013
Библиотека кодирования                   : LAME3.99r
Обложка                                  : Yes
Тип обложки                              : Cover (front)
MIME-тип обложки                         : image/jpeg
DISCNUMBER                               : 1/1
ALBUMARTIST                              : Emin
COVER ART (FRONT)                        : Cover Art (Front).jpg

Аудио
Формат                                   : MPEG Audio
Версия формата                           : Version 1
Профиль формата                          : Layer 3
Режим                                    : Joint stereo
Продолжительность                        : 3 м. 30 с.
Вид битрейта                             : Переменный
Битрейт                                  : 317 Кбит/сек
Каналы                                   : 2 канала
Частота                                  : 44,1 КГц
Метод сжатия                             : С потерями
Размер потока                            : 7,96 Мбайт (96%)
Библиотека кодирования                   : LAME3.99r
Настройки программы                      : -m j -V 2 -q 0 -lowpass 18.5 --vbr-new

Общее
Полное имя                               : C:\Users\PASHA\Desktop\Emin - На краю (2014)\08. Ты не одна.mp3
Формат                                   : MPEG Audio
Размер файла                             : 10,3 Мбайт
Продолжительность                        : 4 м. 23 с.
Режим общего битрейта                    : Переменный
Общий поток                              : 317 Кбит/сек
Альбом                                   : На Краю
Альбом/Исполнитель                       : Emin
Часть/Положение                          : 1
Часть/Всего                              : 1
Трек                                     : Ты Не Одна
Трек/Положение                           : 08
Трек/Всего                               : 12
Исполнитель                              : Emin
Жанр                                     : Pop
Дата записи                              : 2013
Библиотека кодирования                   : LAME3.99r
Обложка                                  : Yes
Тип обложки                              : Cover (front)
MIME-тип обложки                         : image/jpeg
DISCNUMBER                               : 1/1
ALBUMARTIST                              : Emin
COVER ART (FRONT)                        : Cover Art (Front).jpg

Аудио
Формат                                   : MPEG Audio
Версия формата                           : Version 1
Профиль формата                          : Layer 3
Режим                                    : Joint stereo
Продолжительность                        : 4 м. 23 с.
Вид битрейта                             : Переменный
Битрейт                                  : 317 Кбит/сек
Каналы                                   : 2 канала
Частота                                  : 44,1 КГц
Метод сжатия                             : С потерями
Размер потока                            : 9,96 Мбайт (97%)
Библиотека кодирования                   : LAME3.99r
Настройки программы                      : -m j -V 2 -q 0 -lowpass 18.5 --vbr-new

Общее
Полное имя                               : C:\Users\PASHA\Desktop\Emin - На краю (2014)\09. Сердце бьётся.mp3
Формат                                   : MPEG Audio
Размер файла                             : 7,98 Мбайт
Продолжительность                        : 3 м. 22 с.
Режим общего битрейта                    : Переменный
Общий поток                              : 317 Кбит/сек
Альбом                                   : На Краю
Альбом/Исполнитель                       : Emin
Часть/Положение                          : 1
Часть/Всего                              : 1
Трек                                     : Сердце Бьётся
Трек/Положение                           : 09
Трек/Всего                               : 12
Исполнитель                              : Emin
Жанр                                     : Pop
Дата записи                              : 2013
Библиотека кодирования                   : LAME3.99r
Обложка                                  : Yes
Тип обложки                              : Cover (front)
MIME-тип обложки                         : image/jpeg
DISCNUMBER                               : 1/1
ALBUMARTIST                              : Emin
COVER ART (FRONT)                        : Cover Art (Front).jpg

Аудио
Формат                                   : MPEG Audio
Версия формата                           : Version 1
Профиль формата                          : Layer 3
Режим                                    : Joint stereo
Расширение режима                        : MS Stereo
Продолжительность                        : 3 м. 22 с.
Вид битрейта                             : Переменный
Битрейт                                  : 317 Кбит/сек
Каналы                                   : 2 канала
Частота                                  : 44,1 КГц
Метод сжатия                             : С потерями
Размер потока                            : 7,64 Мбайт (96%)
Библиотека кодирования                   : LAME3.99r
Настройки программы                      : -m j -V 2 -q 0 -lowpass 18.5 --vbr-new

Общее
Полное имя                               : C:\Users\PASHA\Desktop\Emin - На краю (2014)\10. В сентябре.mp3
Формат                                   : MPEG Audio
Размер файла                             : 8,45 Мбайт
Продолжительность                        : 3 м. 34 с.
Режим общего битрейта                    : Переменный
Общий поток                              : 316 Кбит/сек
Альбом                                   : На Краю
Альбом/Исполнитель                       : Emin
Часть/Положение                          : 1
Часть/Всего                              : 1
Трек                                     : В Сентябре
Трек/Положение                           : 10
Трек/Всего                               : 12
Исполнитель                              : Emin
Жанр                                     : Pop
Дата записи                              : 2013
Библиотека кодирования                   : LAME3.99r
Обложка                                  : Yes
Тип обложки                              : Cover (front)
MIME-тип обложки                         : image/jpeg
DISCNUMBER                               : 1/1
ALBUMARTIST                              : Emin
COVER ART (FRONT)                        : Cover Art (Front).jpg

Аудио
Формат                                   : MPEG Audio
Версия формата                           : Version 1
Профиль формата                          : Layer 3
Режим                                    : Joint stereo
Продолжительность                        : 3 м. 34 с.
Вид битрейта                             : Переменный
Битрейт                                  : 316 Кбит/сек
Каналы                                   : 2 канала
Частота                                  : 44,1 КГц
Метод сжатия                             : С потерями
Размер потока                            : 8,10 Мбайт (96%)
Библиотека кодирования                   : LAME3.99r
Настройки программы                      : -m j -V 2 -q 0 -lowpass 18.5 --vbr-new

Общее
Полное имя                               : C:\Users\PASHA\Desktop\Emin - На краю (2014)\11. Лепестки опавших роз.mp3
Формат                                   : MPEG Audio
Размер файла                             : 7,93 Мбайт
Продолжительность                        : 3 м. 20 с.
Режим общего битрейта                    : Переменный
Общий поток                              : 317 Кбит/сек
Альбом                                   : На Краю
Альбом/Исполнитель                       : Emin
Часть/Положение                          : 1
Часть/Всего                              : 1
Трек                                     : Лепестки Опавших Роз
Трек/Положение                           : 11
Трек/Всего                               : 12
Исполнитель                              : Emin
Жанр                                     : Pop
Дата записи                              : 2013
Библиотека кодирования                   : LAME3.99r
Обложка                                  : Yes
Тип обложки                              : Cover (front)
MIME-тип обложки                         : image/jpeg
DISCNUMBER                               : 1/1
ALBUMARTIST                              : Emin
COVER ART (FRONT)                        : Cover Art (Front).jpg

Аудио
Формат                                   : MPEG Audio
Версия формата                           : Version 1
Профиль формата                          : Layer 3
Режим                                    : Joint stereo
Продолжительность                        : 3 м. 20 с.
Вид битрейта                             : Переменный
Битрейт                                  : 317 Кбит/сек
Каналы                                   : 2 канала
Частота                                  : 44,1 КГц
Метод сжатия                             : С потерями
Размер потока                            : 7,59 Мбайт (96%)
Библиотека кодирования                   : LAME3.99r
Настройки программы                      : -m j -V 2 -q 0 -lowpass 18.5 --vbr-new

Общее
Полное имя                               : C:\Users\PASHA\Desktop\Emin - На краю (2014)\12. Синяя вечность.mp3
Формат                                   : MPEG Audio
Размер файла                             : 11,0 Мбайт
Продолжительность                        : 4 м. 40 с.
Режим общего битрейта                    : Переменный
Общий поток                              : 319 Кбит/сек
Альбом                                   : На Краю
Альбом/Исполнитель                       : Emin
Часть/Положение                          : 1
Часть/Всего                              : 1
Трек                                     : Синяя Вечность
Трек/Положение                           : 12
Трек/Всего                               : 12
Исполнитель                              : Emin
Жанр                                     : Pop
Дата записи                              : 2013
Библиотека кодирования                   : LAME3.99r
Обложка                                  : Yes
Тип обложки                              : Cover (front)
MIME-тип обложки                         : image/jpeg
DISCNUMBER                               : 1/1
ALBUMARTIST                              : Emin
COVER ART (FRONT)                        : Cover Art (Front).jpg

Аудио
Формат                                   : MPEG Audio
Версия формата                           : Version 1
Профиль формата                          : Layer 3
Режим                                    : Joint stereo
Расширение режима                        : MS Stereo
Продолжительность                        : 4 м. 40 с.
Вид битрейта                             : Переменный
Битрейт                                  : 319 Кбит/сек
Каналы                                   : 2 канала
Частота                                  : 44,1 КГц
Метод сжатия                             : С потерями
Размер потока                            : 10,7 Мбайт (97%)
Библиотека кодирования                   : LAME3.99r
Настройки программы                      : -m j -V 2 -q 0 -lowpass 18.5 --vbr-new

Общее
Полное имя                               : C:\Users\PASHA\Desktop\Emin - На краю (2014)\cover.jpg
Формат                                   : JPEG
Размер файла                             : 185 Кбайт

Изображения
Формат                                   : JPEG
Ширина                                   : 800 пикселей
Высота                                   : 800 пикселей
Цветовое пространство                    : YUV
Субдискретизация насыщенности            : 4:4:4
Битовая глубина                          : 8 бит
Метод сжатия                             : С потерями
Размер потока                            : 185 Кбайт (100%)
YouTube

Время раздачи: Пн-Пт с 15:00 до 22:00
[NNM-Club.me]_Emin - Na krayu (2014).torrent
 Торрент: Платиновая раздача  Зарегистрирован
 
Скачать


Примагнититься
 Зарегистрирован:   03 Авг 2014 00:44:38
 Размер:   109 MB  (
 Рейтинг:   4,7 (Голосов: 29)
 Поблагодарили:   109
 Проверка:   Оформление проверено модератором 04 Авг 2014 11:58:12
Как cкачать  ·  Как раздать  ·  Правильно оформить  ·  Поднять ратио!  
romaxaz
Стаж: 12 лет 10 мес.
Сообщений: 98
Ratio: 20,963
100%
Уважаемые, есть кто живой? Встаньте на раздачу.
Показать сообщения:   
Начать новую тему   Ответить на тему    Торрент-трекер NNM-Club -> Pop -> Отечественная поп-музыка Часовой пояс: GMT + 3
Страница 1 из 1