Классический форум-трекер
canvas not supported
Нас вместе: 4 094 733

Orbital - Wonky (2012) [FLAC|Lossless]<Electronic/Leftfield/Dubstep/Techno/Electro>


 
 
RSS
Начать новую тему   Ответить на тему    Торрент-трекер NNM-Club -> Electronic -> House, Techno, Electro, Minimal (Lossless)
Автор Сообщение
_cynic_ ®
Стаж: 11 лет 5 мес.
Сообщений: 1603
Ratio: 1112,272
Поблагодарили: 70585
100%
Откуда: 61
pirates.png
Orbital - Wonky (2012)
Год: 2012
Жанр: Electronic/Leftfield/Dubstep/Techno/Electro
Продолжительность: 00:50:41
Страна: UK
Кодек: FLAC (tracks + .cue)
Битрейт: Lossless
Трек лист:

1. One Big Moment
2. Straight Sun
3. Never
4. New France [ft. Zola Jesus]
5. Distractions
6. Stringy Acid
7. Beelzedub
8. Wonky [ft. Lady Leshurr]
9. Where Is it Going?

Код:

Exact Audio Copy V1.0 beta 3 from 29. August 2011

EAC extraction logfile from 2. April 2012, 13:05

Orbital / Wonky

Used drive  : Optiarc DVD RW AD-7201S   Adapter: 2  ID: 0

Read mode               : Secure
Utilize accurate stream : Yes
Defeat audio cache      : Yes
Make use of C2 pointers : No

Read offset correction                      : 48
Overread into Lead-In and Lead-Out          : No
Fill up missing offset samples with silence : Yes
Delete leading and trailing silent blocks   : No
Null samples used in CRC calculations       : Yes
Used interface                              : Native Win32 interface for Win NT & 2000
Gap handling                                : Appended to previous track

Used output format              : User Defined Encoder
Selected bitrate                : 128 kBit/s
Quality                         : High
Add ID3 tag                     : No
Command line compressor         : C:\Program Files (x86)\FLAC\flac.exe
Additional command line options : -8 -V -T "ARTIST=%artist%" -T "TITLE=%title%" -T "ALBUM=%albumtitle%" -T "DATE=%year%" -T "TRACKNUMBER=%tracknr%" -T "GENRE=%genre%" -T "PERFORMER=%albuminterpret%" -T "COMPOSER=%composer%" %haslyrics%--tag-from-file=LYRICS="%lyricsfile%"%haslyrics% -T "ALBUMARTIST=%albumartist%" -T "ALBUM ARTIST=%albumartist%" -T "DISCNUMBER=%cdnumber%" -T "TOTALDISCS=%totalcds%" -T "TOTALTRACKS=%numtracks%" -T "COMMENT=%comment%" %source% -o %dest%

TOC of the extracted CD

     Track |   Start  |  Length  | Start sector | End sector
    ---------------------------------------------------------
        1  |  0:00.00 |  6:16.69 |         0    |    28268
        2  |  6:16.69 |  5:28.58 |     28269    |    52926
        3  | 11:45.52 |  4:43.66 |     52927    |    74217
        4  | 16:29.43 |  4:47.64 |     74218    |    95806
        5  | 21:17.32 |  7:05.00 |     95807    |   127681
        6  | 28:22.32 |  5:19.45 |    127682    |   151651
        7  | 33:42.02 |  4:54.64 |    151652    |   173765
        8  | 38:36.66 |  6:13.55 |    173766    |   201795
        9  | 44:50.46 |  5:50.52 |    201796    |   228097

Track  1

     Filename E:\2012 - Wonky\01 - One Big Moment.wav

     Pre-gap length  0:00:02.00

     Peak level 98.8 %
     Extraction speed 2.6 X
     Track quality 100.0 %
     Test CRC F610B8F4
     Copy CRC F610B8F4
     Track not present in AccurateRip database
     Copy OK

Track  2

     Filename E:\2012 - Wonky\02 - Straight Sun.wav

     Pre-gap length  0:00:00.05

     Peak level 98.4 %
     Extraction speed 2.9 X
     Track quality 100.0 %
     Test CRC 3583050A
     Copy CRC 3583050A
     Track not present in AccurateRip database
     Copy OK

Track  3

     Filename E:\2012 - Wonky\03 - Never.wav

     Peak level 100.0 %
     Extraction speed 2.8 X
     Track quality 99.9 %
     Test CRC E3B97E2F
     Copy CRC E3B97E2F
     Track not present in AccurateRip database
     Copy OK

Track  4

     Filename E:\2012 - Wonky\04 - New France (feat. Zola Jesus).wav

     Pre-gap length  0:00:00.40

     Peak level 100.0 %
     Extraction speed 3.0 X
     Track quality 99.9 %
     Test CRC 85CF4C6E
     Copy CRC 85CF4C6E
     Track not present in AccurateRip database
     Copy OK

Track  5

     Filename E:\2012 - Wonky\05 - Distractions.wav

     Pre-gap length  0:00:00.22

     Peak level 100.0 %
     Extraction speed 3.8 X
     Track quality 100.0 %
     Test CRC 86909677
     Copy CRC 86909677
     Track not present in AccurateRip database
     Copy OK

Track  6

     Filename E:\2012 - Wonky\06 - Stringy Acid.wav

     Peak level 98.8 %
     Extraction speed 4.0 X
     Track quality 100.0 %
     Test CRC 348BB760
     Copy CRC 348BB760
     Track not present in AccurateRip database
     Copy OK

Track  7

     Filename E:\2012 - Wonky\07 - Beelzedub.wav

     Peak level 100.0 %
     Extraction speed 4.2 X
     Track quality 100.0 %
     Test CRC 6D061649
     Copy CRC 6D061649
     Track not present in AccurateRip database
     Copy OK

Track  8

     Filename E:\2012 - Wonky\08 - Wonky (feat. Lady Leshurr).wav

     Peak level 100.0 %
     Extraction speed 4.4 X
     Track quality 100.0 %
     Test CRC 827B7055
     Copy CRC 827B7055
     Track not present in AccurateRip database
     Copy OK

Track  9

     Filename E:\2012 - Wonky\09 - Where Is it Going.wav

     Pre-gap length  0:00:00.51

     Peak level 95.4 %
     Extraction speed 4.7 X
     Track quality 100.0 %
     Test CRC E9E2FDE1
     Copy CRC E9E2FDE1
     Track not present in AccurateRip database
     Copy OK

None of the tracks are present in the AccurateRip database

No errors occurred

End of status report

---- CUETools DB Plugin V2.1.3

[CTDB TOCID: RYpyG9TXsEPuIjeYY0cyKBZecjk-] disk not present in database, Submit result: duplicate submission

==== Log checksum 73731A5D35F41F5A151F245B51C87912FFBFEB65E1EF260F7B2C8AA3688C5AB0 ====

Код:

-----------------------

DON'T MODIFY THIS FILE

-----------------------

PERFORMER: auCDtect Task Manager, ver. 1.5.1RC2 build 1.5.1.3
Copyright (c) 2008-2010 y-soft. All rights reserved
http://y-soft.org

ANALYZER: auCDtect: CD records authenticity detector, version 0.8.2
Copyright (c) 2004 Oleg Berngardt. All rights reserved.
Copyright (c) 2004 Alexander Djourik. All rights reserved.

FILE: 09 - Where Is it Going.flac
  Size: 40901038 Hash: 0C08E8AFA47B0AF7529A3F677A339611 Accuracy: -m0
  Conclusion: CDDA 100%
  Signature: 724A1341486815EC30995D09ED6841181FB49773
FILE: 08 - Wonky (feat. Lady Leshurr).flac
  Size: 48172657 Hash: 92F58402A587E24073556E9BAE583D5C Accuracy: -m0
  Conclusion: CDDA 99%
  Signature: 3EF8783D0487D04D788CEC912926F16FB3AD6D3B
FILE: 07 - Beelzedub.flac
  Size: 35435611 Hash: F152AD4D391B2D653D692A4E68C4698E Accuracy: -m0
  Conclusion: CDDA 100%
  Signature: A26F3DC7A4397E250C31D0B7B1D761DD3B757521
FILE: 06 - Stringy Acid.flac
  Size: 40434384 Hash: D86A32CD1AFC4E0BFADBD1F224B91A70 Accuracy: -m0
  Conclusion: CDDA 100%
  Signature: D3D858E1463D6BA48113A348C5CC36D1BBEB016A
FILE: 05 - Distractions.flac
  Size: 45932873 Hash: B529A92193D2F2A3D79F7D8CB359A469 Accuracy: -m0
  Conclusion: CDDA 100%
  Signature: 73242372D97BE6541D95561AC31D7196530FA068
FILE: 04 - New France (feat. Zola Jesus).flac
  Size: 34646407 Hash: D0A0797DBA63D58FAAA1D52DC9C8B270 Accuracy: -m0
  Conclusion: CDDA 100%
  Signature: 30C6EEAB9F3D5A73F62B7C7331E7E9B07F6EE265
FILE: 03 - Never.flac
  Size: 29445521 Hash: A61BB092FEA6FAC76EC369AB039C76DF Accuracy: -m0
  Conclusion: CDDA 100%
  Signature: 7026D3405979BAC1FF0A16695249C2B132FEEC19
FILE: 02 - Straight Sun.flac
  Size: 38004753 Hash: FACE9A2D6B5C36BB7DBE22E066100DF4 Accuracy: -m0
  Conclusion: CDDA 100%
  Signature: 749CC909232C6D3A76249619A2821F54B92051D3
FILE: 01 - One Big Moment.flac
  Size: 42358532 Hash: B4DD341F85636B448B8783D8B1BFE161 Accuracy: -m0
  Conclusion: CDDA 100%
  Signature: AD9923CFACEDCC50CEA591587108B3CC25C3DA27

Время раздачи: с 00:00 до первых скачавших
[NNM-Club.ru]_Orbital - Wonky (2012).torrent
 Торрент: Платиновая раздача  Зарегистрирован
 
Скачать


 Зарегистрирован:   02 Апр 2012 17:56:59
 Размер:   339 MB  (
 Рейтинг:   4,8 (Голосов: 32)
 Поблагодарили:   106
 Проверка:   Оформление проверено модератором 02 Апр 2012 20:07:43
Как cкачать  ·  Как раздать  ·  Правильно оформить  ·  Поднять ратио!  
_cynic_ ®
Стаж: 11 лет 5 мес.
Сообщений: 1603
Ratio: 1112,272
Поблагодарили: 70585
100%
Откуда: 61
pirates.png
Сергей Ежов
Стаж: 8 лет 10 мес.
Сообщений: 891
Ratio: 55,245
Раздал: 105,4 TB
100%
Откуда: Вольск
russia.gif
Очередная бомба..а я то думал всё...что.. The Altogether вершина творчества .. а тут вот вам нати)

_________________
Наше от нас не уйдёт. То, что ушло - было не наше
Топик был перенесен из форума Drum'n'Bass, Jungle, Breaks, Breakbeat, Dubstep (Lossless) в форум House, Techno, Electro, Minimal (Lossless)



Исправил релиз - напиши ЛС vilator, дав ссылку на релиз.
Если нет ответа 24 часа - нажми на кнопку "Обратить внимание модераторов".
Показать сообщения:   
Начать новую тему   Ответить на тему    Торрент-трекер NNM-Club -> Electronic -> House, Techno, Electro, Minimal (Lossless) Часовой пояс: GMT + 3
Страница 1 из 1