Классический форум-трекер
canvas not supported
Нас вместе: 4 095 058

Битва за Измаил. 1790 год (2010) DVD5


 
 
RSS
Начать новую тему   Ответить на тему    Торрент-трекер NNM-Club -> Документалистика и Телепередачи -> Отечественная история
Автор Сообщение
nnmclub0112 ®
Стаж: 8 лет 1 мес.
Сообщений: 3907
Ratio: 88,493
Поблагодарили: 251505
100%
Битва за Измаил. 1790 год (2010) DVD5
Название: Битва за Измаил. 1790 год

Режиссер / Телекомпания: Леонид Фишель
Год выпуска: 2010
Жанр: Документальный

Описание:
Штурм и взятие Измаила во время второй русско-турецкой войны - один из триумфов великого русского полководца А.В. Суворова. «Суворов в этот день превосходил Тимура и, пожалуй, Чингисхана. Он созерцал горящий Измаил и слушал вопли вражеского стана». Д. Байрон.

Продолжительность: 00:26:20

Видеокодек: MPEG-2
Битрейт видео: ~9000 Кбит/сек
Размер кадра: 720x576
Качество видео: DVD5
Аудиокодек: AC3 2.0
Битрейт аудио: 384 Кбит/сек
Общее
Полное имя : J:\nF\Докум\!4 история\!\Сражения Русской Истории\Битва за Измаил\Битва за Измаил. 1790 год (2010) DVD5\VIDEO_TS\VTS_01_1.VOB
Формат : MPEG-PS
Размер файла : 1024 Мбайт
Продолжительность : 14 м.
Общий поток : 9543 Кбит/сек

Видео
Идентификатор : 224 (0xE0)
Формат : MPEG Video
Версия формата : Version 2
Профиль формата : Main@Main
Параметр BVOP формата : Да
Параметр матрицы формата : По умолчанию
Параметр GOP формата : M=3, N=12
Продолжительность : 14 м.
Битрейт : 9000 Кбит/сек
Ширина : 720 пикселей
Высота : 576 пикселей
Соотношение сторон : 4:3
Частота кадров : 25,000 кадров/сек
Стандарт вещания : PAL
Цветовое пространство : YUV
Субдискретизация насыщенности : 4:2:0
Битовая глубина : 8 бит
Тип развёртки : Чересстрочная
Порядок развёртки : Нижнее поле первое
Метод сжатия : С потерями
Бит/(Пиксели*Кадры) : 0.868
TimeCode_FirstFrame : 00:00:00:00
TimeCode_Source : Group of pictures header
Размер потока : 962 Мбайт (94%)

Аудио
Идентификатор : 189 (0xBD)-128 (0x80)
Формат : AC-3
Формат/Информация : Audio Coding 3
Расширение режима : CM (complete main)
Параметр Endianness формата : Big
Режим смешивания : DVD-Video
Продолжительность : 14 м.
Вид битрейта : Постоянный
Битрейт : 384 Кбит/сек
Каналы : 2 канала
Расположение каналов : Front: L R
Частота : 48,0 КГц
Битовая глубина : 16 бит
Метод сжатия : С потерями
Задержка видео : -80 мс.
Размер потока : 41,2 Мбайт (4%)

Меню
Title: Битва за Измаил. 1790 год (2010) DVD5
Size: 1.76 Gb ( 1 840 712,00 KBytes ) - DVD-5
Enabled regions: 1, 2, 3, 4, 5, 6, 7, 8

VTS_01 :
Play Length: 00:26:20
Video: PAL 4:3 (720x576) VBR
Audio:
Russian (Dolby AC3, 2 ch)

* Menus Information *

VIDEO_TS Menu
Video:
PAL 4:3 (720x576) VBR
Russian Language Unit :
Title Menu

VTS_01 Menu
Video:
PAL 4:3 (720x576) VBR
Russian Language Unit :
Root Menu
Скриншоты:


Время раздачи: С 09:00 до 23:00
[NNM-Club.ru]_Bitva za Izmail. 1790 god (2010) DVD5.torrent
 Торрент: Платиновая раздача  Зарегистрирован
 
Скачать


Примагнититься
 Зарегистрирован:   26 Апр 2013 14:35:29
 Размер:   1,76 GB  (
 Рейтинг:   4,3 (Голосов: 66)
 Поблагодарили:   190
 Проверка:   Оформление проверено модератором 26 Апр 2013 17:04:18
Как cкачать  ·  Как раздать  ·  Правильно оформить  ·  Поднять ратио!  
R1ter
Стаж: 10 лет 6 мес.
Сообщений: 1094
Ratio: 5,914
Поблагодарили: 16085
100%
Откуда: Москва
russia.gif
"Русский бог войны", "Неистовый Марс", с которым избегали встреч на поле боя прославленные генералы противника родился 13 ноября (24 по новому стилю). Блистательный русский полководец не проиграл ни одного сражения.

_________________
Мои релизы!
softvirus
Стаж: 9 лет 7 мес.
Сообщений: 138
Ratio: 44,521
Раздал: 37,25 TB
100%
Откуда: Москва
russia.gif
СпасиБо релизёру!
Будет сегодня шефу подарок =)

_________________
Подсел на МП3 серию S.T.A.L.K.E.R.
pericl
Куратор форумов
Новогодний олень
Стаж: 9 лет 6 мес.
Сообщений: 2517
Ratio: 399,133
100%
Откуда: Вологда
russia.gif
24 декабря отмечается День воинской славы России — День взятия русскими войсками турецкой крепости Измаил (1790)

_________________

Птицей стучится в жилах кровь, вера да надежда, любовь.
Odisseus83
Модератор Док/TV
Спорта и Юмора
Uploader 100+
Стаж: 9 лет 7 мес.
Сообщений: 1971
Ratio: 1447,094
Раздал: 294,6 TB
Поблагодарили: 159461
100%
ukraine.gif
Как житель сего славного города воинской славы, выражаю благодарность релизеру!

_________________
Исправили релиз? Отправьте мне со ссылкой на него

Leave me alone, I know what I'm doing © Kimi Räikkönen
AlexiiY
Стаж: 6 лет
Сообщений: 29
Ratio: 1,322
100%
ussr.gif
Там, где пройдет олень, там пройдет и русский солдат. Там, где не пройдет олень, все равно пройдет русский солдат.
Destroyer13
Стаж: 9 лет 1 мес.
Сообщений: 11
Ratio: 26,927
27.07%
Откуда: Одесса
ukraine.gif
Спасибо за релиз, посмотрю историю своего родного города )
Показать сообщения:   
Начать новую тему   Ответить на тему    Торрент-трекер NNM-Club -> Документалистика и Телепередачи -> Отечественная история Часовой пояс: GMT + 3
Страница 1 из 1