Классический форум-трекер
canvas not supported
Нас вместе: 4 093 331

Красная шапочка (2012.12.31) SATRip


 
 
RSS
Начать новую тему   Ответить на тему    Торрент-трекер NNM-Club -> Театр и Музыкальное видео -> Опера, Балет, Мюзиклы
Автор Сообщение
svlesin ®
Модератор Документалистики/TV
RG Releasers
Релизер 25000+ Uploader 300+
 
Стаж: 10 лет 2 мес.
Сообщений: 33802
Ratio: 1813,461
Поблагодарили: 3252635
100%
russia.gif
Красная шапочка (2012.12.31) SATRip
Режиссер / Телекомпания: Россия
Русское название: Красная шапочка
Год выпуска: 2012
Жанр: Комедия, музыкальный фильм

Описание:
По традиции в канун Нового года на телеканале "Россия" – старая сказка на новый лад! Авторы новой музыкальной комедии изменили сюжетную линию классической сказки Шарля Перро, добавили новые непредсказуемые повороты и ввели неожиданных героев. Красной Шапочке надоело продавать пирожки, она бросает семейный бизнес и отправляется в большое путешествие. Все во имя мечты – стать звездой эстрады. На пути к успеху ей предстоит познакомиться с новыми друзьями и преодолеть козни врагов - Волка и Злой Мачехи. И у нее конечно же все получится!

Режиссёр: Александр Игудин

В ролях: Юрий Стоянов, Андрей Данилко, Тимур Родригез, Елизавета Арзамасова, Николай Басков, Юрий Гальцев, Филипп Киркоров, Анастасия Стоцкая, Елена Степаненко, Елена Воробей, Борис Смолкин, Анна Семенович, Лолита Милявская

Продолжительность: ~ 01:42:19

Видеокодек: DviX
Битрейт видео: ~1769 kb/s
Размер кадра: 720 x 432
Качество видео: SATRip
Аудиокодек: MP3, 2ch.
Битрейт аудио: 128 kb/s
Формат : AVI
Формат/Информация : Audio Video Interleave
Профиль формата : OpenDML
Размер файла : 1,37 Гбайт
Продолжительность : 1 ч. 42 м.
Общий поток : 1914 Кбит/сек

Видео
Идентификатор : 0
Формат : MPEG-4 Visual
Профиль формата : Simple@L3
Параметр BVOP формата : Нет
Параметр QPel формата : Нет
Параметр GMC формата : Без точки перехода
Параметр матрицы формата : Default (H.263)
Идентификатор кодека : DX50
Идентификатор кодека/Подсказка : DivX 5
Продолжительность : 1 ч. 42 м.
Битрейт : 1769 Кбит/сек
Ширина : 720 пикселей
Высота : 432 пикселя
Соотношение сторон : 1,667
Частота кадров : 25,000 кадров/сек
Цветовое пространство : YUV
Субдискретизация насыщенности : 4:2:0
Битовая глубина : 8 бит
Тип развёртки : Прогрессивная
Метод сжатия : С потерями
Бит/(Пиксели*Кадры) : 0.227
Размер потока : 1,26 Гбайт (92%)
Библиотека кодирования : XviD 1.2.1 (UTC 2008-12-04)

Аудио
Идентификатор : 1
Формат : MPEG Audio
Версия формата : Version 1
Профиль формата : Layer 3
Режим : Joint stereo
Расширение режима : MS Stereo
Идентификатор кодека : 55
Идентификатор кодека/Подсказка : MP3
Продолжительность : 1 ч. 42 м.
Вид битрейта : Постоянный
Битрейт : 128 Кбит/сек
Каналы : 2 канала
Частота : 48,0 КГц
Метод сжатия : С потерями
Размер потока : 93,7 Мбайт (7%)
Выравнивание : Соединение по промежуткам
Продолжительность промежутка : 24 мс. (0,60 видеокадр)
Библиотека кодирования : LAME3.98.2
Скриншоты:

Время раздачи: 24/7. До первых 5 скачавших.
[NNM-Club.ru]_Krasnaya shapochka (2012.12.31).avi.torrent
 Торрент: Платиновая раздача  Зарегистрирован
 
Скачать


 Зарегистрирован:   31 Дек 2012 18:18:33
 Размер:   1,37 GB  (
 Рейтинг:   4,2 (Голосов: 85)
 Поблагодарили:   347
 Проверка:   Оформление проверено модератором 31 Дек 2012 20:06:50
Как cкачать  ·  Как раздать  ·  Правильно оформить  ·  Поднять ратио!  

_________________
Уважаемые пользователи Клуба! От меня релизов больше не будет. Может быть, буду поддерживать «Обновляемые раздачи». Спасибо всем, кто благодарил меня и говорил/нажимал «Спасибо»!
Lester7777
 
Стаж: 7 лет 9 мес.
Сообщений: 400
Ratio: 7,713
100%
russia.gif
Верка Сердючка в роли Красной шапочки...
Попробуйте теперь меня чем нибудь испугать.
viktor561
Гость
Lester7777 писал(а): Перейти к сообщению
Верка Сердючка в роли Красной шапочки...
Попробуйте теперь меня чем нибудь испугать.
Что заслужили то и получили на Новый Год! :D :D
крановой
Стаж: 8 лет 2 мес.
Сообщений: 41
Ratio: 10,669
Раздал: 2,044 TB
92.99%
Откуда: от туда
ussr.gif
  страны проходит успешно
sop1810
Стаж: 10 лет 4 мес.
Сообщений: 725
Ratio: 3,418
Поблагодарили: 343
100%
Откуда: Моя Родина - СССР.
ussr.gif
Цитата:
По традиции в канун Нового года на телеканале "Россия" – старая сказка на новый лад

По дурной традиции... :( Опять халтура. Неужели современные режиссеры не могут свое что-нибудь придумать, а не коверкать старое. Творческая импотенция.

Раздающему спасибо в любом случае. =) Оперативно

_________________
Сам себе режиссер...
Alcohanter
Стаж: 9 лет 11 мес.
Сообщений: 228
Ratio: 79,561
100%
крановой писал(а): Перейти к сообщению
  страны проходит успешно

если многие смогут отличить такие поделки от шедевров ,значит не все потеряно ...
noname Incognito
Виртуоз пера
Стаж: 9 лет 1 мес.
Сообщений: 209
Ratio: 55,347
Раздал: 16,39 TB
Поблагодарили: 3271
100%
Откуда: Хмельницький
ukraine.gif
Народ, ну а чё вы так взъелись?..    , но можно подумать вы в новый год основы квантовой физики бы смотрели. Всё в тему и под настроение.
substitute
Стаж: 7 лет 8 мес.
Сообщений: 3
Ratio: 6,117
100%
Спасибо релизёру :респект: :клево:
всё,что пропустил в праздник,посмотрел благодаря его трудам
а что касается содержания.....какая страна-такие и шоу.............
semenets
Стаж: 12 лет 6 мес.
Сообщений: 225
Ratio: 5,717
Поблагодарили: 242
100%
ussr.gif
А как называется про Алладина, а то не могу найти?
Mr_Bright​side444​
Стаж: 1 год 7 мес.
Сообщений: 5
Ratio: 1,156
0%
А мне нравиться. Посмотреть перед Новым Годом ОК)
Показать сообщения:   
Начать новую тему   Ответить на тему    Торрент-трекер NNM-Club -> Театр и Музыкальное видео -> Опера, Балет, Мюзиклы Часовой пояс: GMT + 3
Страница 1 из 1