Классический форум-трекер
canvas not supported
Нас вместе: 4 094 191

Метро (2012) BDRip [H.264/720p-LQ]


Страницы:   Пред.  1, 2 
 
RSS
Начать новую тему   Ответить на тему    Торрент-трекер NNM-Club -> Отечественное кино -> Отечественные Фильмы (HD*Rip/LQ, DVDRip, SATRip, VHSRip)
Автор Сообщение
batonchik ®
Куратор Видео
RG Releasers
Котоаплоадер 6000+
 
Стаж: 12 лет
Сообщений: 25447
Ratio: 89K
Раздал: 6,7802 PB
Поблагодарили: 1313221
100%
Откуда: из лесу
ussr.gif
Метро (2012) BDRip
Русское название: Метро
Год выпуска: 2012
Производство: Россия, Профит
Жанр: Триллер, Драма
Перевод: Не требуется
Субтитры: нет

Режиссер: Антон Мегердичев
Продюсер: Игорь Толстунов, Сергей Козлов
Актеры: Сергей Пускепалис, Анатолий Белый, Анфиса Вистингаузен, Алексей Бардуков, Катерина Шпица, Елена Панова, Станислав Дужников, Светлана Ходченкова, Сергей Сосновский, Ярослав Жалнин, Александр Яковлев, Владимир Стержаков, Александр Фисенко, Иван Макаревич, Максим Линников, Иван Лапин

Описание фильма:
Широко развернувшееся в центре Москвы строительство новых зданий приводит к тому, что в одном из тоннелей метро между двумя станциями возникает трещина. Никто себе и представить не мог, что в результате нарушения герметичности перекрытия в тоннель хлынет вода из Москва-реки, и сотни пассажиров поезда окажутся во власти надвигающегося потопа. Бешеный поток воды грозит не только обрушением тоннелей метро, но и разрушением всего города.Среди попавших в беду людей — врач городской больницы Андрей Гарин и его дочь Ксюша. Гарин сражается с катастрофой, пытаясь спасти оставшихся в живых пассажиров, в том числе и …любовника своей жены. Гарину придется побороть обиду, гнев и страх. Он должен выжить, чтобы вернуть свою любовь, семью… свою прежнюю счастливую жизнь.
Рейтинг:
Дата мировой премьеры: 21 февраля 2013
Дата российской премьеры: 21 февраля 2013, «Наше Кино»
Дата выхода DVD релиза: 12 марта 2013, «Lizard Cinema Trade»
Дата выхода на Blu-Ray: 12 марта 2013, «Lizard Cinema Trade»
Релиз от:

Продолжительность: 02:11:44
Качество видео: BDRip (batonchik)
Видеокодек: MPEG-4 AVC/H.264
Битрейт видео: ~ 3499 Кбит/сек
Размер кадра: 1280x544
Аудио: Русский / AC3 5.1 / 448 kbps / 48,0 КГц / 16 бит
--[Information] [09.03.2013 3:50:33] Standard error stream
---[NoImage] raw [info]: 1280x544p 1:1 @ 24000/1001 fps (cfr)
---[NoImage] x264 [info]: using SAR=1/1
---[NoImage] x264 [info]: using cpu capabilities: MMX2 SSE2Fast SSSE3 FastShuffle SSE4.2 AVX
---[NoImage] x264 [info]: profile High, level 4.1
---[NoImage]
---[NoImage] x264 [info]: frame I:2122 Avg QP:15.88 size:101386
---[NoImage] x264 [info]: frame P:47437 Avg QP:19.72 size: 33231
---[NoImage] x264 [info]: frame B:139969 Avg QP:22.34 size: 11890

---[NoImage] x264 [info]: consecutive B-frames: 4.3% 4.3% 12.5% 26.0% 13.4% 34.1% 3.1% 0.6% 0.8% 0.3% 0.7%
---[NoImage] x264 [info]: mb I I16..4: 10.0% 64.8% 25.2%
---[NoImage] x264 [info]: mb P I16..4: 1.4% 12.3% 2.1% P16..4: 30.3% 34.4% 10.3% 2.1% 0.3% skip: 6.8%
---[NoImage] x264 [info]: mb B I16..4: 0.1% 2.1% 0.3% B16..8: 36.5% 18.4% 2.7% direct: 4.6% skip:35.3% L0:42.5% L1:46.4% BI:11.0%
---[NoImage] x264 [info]: 8x8 transform intra:76.7% inter:65.2%
---[NoImage] x264 [info]: direct mvs spatial:98.1% temporal:1.9%
---[NoImage] x264 [info]: coded y,uvDC,uvAC intra: 86.9% 72.6% 38.7% inter: 23.3% 14.8% 1.7%
---[NoImage] x264 [info]: i16 v,h,dc,p: 27% 16% 9% 48%
---[NoImage] x264 [info]: i8 v,h,dc,ddl,ddr,vr,hd,vl,hu: 8% 8% 5% 10% 15% 13% 15% 12% 14%
---[NoImage] x264 [info]: i4 v,h,dc,ddl,ddr,vr,hd,vl,hu: 8% 10% 4% 9% 15% 13% 15% 11% 15%
---[NoImage] x264 [info]: i8c dc,h,v,p: 32% 31% 18% 18%
---[NoImage] x264 [info]: Weighted P-Frames: Y:8.9% UV:5.8%
---[NoImage] x264 [info]: ref P L0: 48.2% 9.8% 17.7% 6.9% 5.3% 4.0% 3.5% 2.0% 2.0% 0.6% 0.1%
---[NoImage] x264 [info]: ref B L0: 77.3% 10.5% 5.0% 2.7% 1.8% 1.4% 0.9% 0.3%
---[NoImage] x264 [info]: ref B L1: 93.6% 6.4%
---[NoImage] x264 [info]: kb/s:3497.29
---[NoImage] encoded 189528 frames, 9.90 fps, 3497.29 kb/s
--[Information] Final statistics
---[Information] [09.03.2013 3:50:33] Video Bitrate Desired: 3499 kbit/s
---[Information] [09.03.2013 3:50:33] Video Bitrate Obtained (approximate): 3498 kbit/s
Общее
Уникальный идентификатор : 217795837042158542235361748907013631794 (0xA3D9F3D29960191E9CFFC0B789FAEF32)
Полное имя :\Metro.2012.BDRip.720p.NNM-CLUB.mkv
Формат : Matroska
Версия формата : Version 2
Размер файла : 3,63 Гбайт
Продолжительность : 2 ч. 11 м.
Общий поток : 3947 Кбит/сек
Название фильма : Metro.2012.BDRip.720p.NNM-CLUB
Дата кодирования : UTC 2013-03-09 07:48:19
Программа кодирования : mkvmerge v5.8.0 ('No Sleep / Pillow') built on Sep 2 2012 15:37:04
Библиотека кодирования : libebml v1.2.3 + libmatroska v1.3.0

Видео
Идентификатор : 1
Формат : AVC
Формат/Информация : Advanced Video Codec
Профиль формата : High@L4.1
Параметр CABAC формата : Да
Параметр ReFrames формата : 9 кадров
Идентификатор кодека : V_MPEG4/ISO/AVC
Продолжительность : 2 ч. 11 м.
Битрейт : 3499 Кбит/сек
Ширина : 1280 пикселей
Высота : 544 пикселя
Соотношение сторон : 2,35:1
Режим частоты кадров : Постоянный
Частота кадров : 23,976 кадра/сек
Цветовое пространство : YUV
Субдискретизация насыщенности : 4:2:0
Битовая глубина : 8 бит
Тип развёртки : Прогрессивная
Бит/(Пиксели*Кадры) : 0.210
Размер потока : 3,15 Гбайт (87%)
Заголовок : Metro.2012.BDRip.720p.NNM-CLUB
Библиотека кодирования : x264 core 129 r2245 bc13772
Настройки программы : cabac=1 / ref=9 / deblock=1:-3:-3 / analyse=0x3:0x133 / me=umh / subme=11 / psy=1 / psy_rd=1.00:0.15 / mixed_ref=1 / me_range=32 / chroma_me=1 / trellis=2 / 8x8dct=1 / cqm=0 / deadzone=21,11 / fast_pskip=0 / chroma_qp_offset=-3 / threads=12 / lookahead_threads=2 / sliced_threads=0 / nr=0 / decimate=1 / interlaced=0 / bluray_compat=0 / constrained_intra=0 / bframes=10 / b_pyramid=2 / b_adapt=2 / b_bias=0 / direct=3 / weightb=1 / open_gop=0 / weightp=2 / keyint=240 / keyint_min=22 / scenecut=40 / intra_refresh=0 / rc_lookahead=40 / rc=2pass / mbtree=1 / bitrate=3499 / ratetol=1.0 / qcomp=0.60 / qpmin=0 / qpmax=69 / qpstep=4 / cplxblur=20.0 / qblur=0.5 / ip_ratio=1.40 / aq=1:0.90
Язык : Russian
Default : Да
Forced : Нет

Аудио
Идентификатор : 2
Формат : AC-3
Формат/Информация : Audio Coding 3
Расширение режима : CM (complete main)
Параметр Endianness формата : Big
Идентификатор кодека : A_AC3
Продолжительность : 2 ч. 11 м.
Вид битрейта : Постоянный
Битрейт : 448 Кбит/сек
Каналы : 6 каналов
Расположение каналов : Front: L C R, Side: L R, LFE
Частота : 48,0 КГц
Битовая глубина : 16 бит
Метод сжатия : С потерями
Размер потока : 422 Мбайт (11%)
Язык : Russian
Default : Да
Forced : Нет

Меню
00:00:00.000 : ru:Chapter 00
00:06:11.120 : ru:Chapter 01
00:13:05.284 : ru:Chapter 02
00:19:35.757 : ru:Chapter 03
00:26:29.129 : ru:Chapter 04
00:33:53.406 : ru:Chapter 05
00:41:08.883 : ru:Chapter 06
00:50:48.712 : ru:Chapter 07
00:56:44.067 : ru:Chapter 08
01:04:35.913 : ru:Chapter 09
01:11:52.808 : ru:Chapter 10
01:19:04.114 : ru:Chapter 11
01:26:17.422 : ru:Chapter 12
01:34:31.791 : ru:Chapter 13
01:41:21.241 : ru:Chapter 14
01:48:46.186 : ru:Chapter 15
01:56:28.606 : ru:Chapter 16
02:06:42.553 : ru:Chapter 17
Для съёмок фильма был сооружён 117-метровый туннель в натуральную величину, и использовались настоящие вагоны метро.
В октябре 2011 года съемки проходили в Самаре. Почти две недели Самарский метрополитен играл роль Московского. Съемки велись на строящейся станции «Алабинская», действующей «Московской» и в депо. Метрополитен Самары даже выделил съемочной группе специальный поезд, предназначенный именно для съемок картины.
В роли собаки Тявки снимался метис Петр, наполовину йорк, наполовину миниатюрный пинчер.


Скриншоты:








Время раздачи: круглогодично

Играю на аккордеоне за "Спасибо"
Metro.2012.BDRip.720p.NNM-CLUB.mkv.torrent
 Торрент: Платиновая раздача  Зарегистрирован
 
Скачать


Примагнититься
 Зарегистрирован:   09 Мар 2013 11:21:17
 Размер:   3,63 GB  (
 Рейтинг:   4,7 (Голосов: 243)
 Поблагодарили:   1027
 Проверка:   Оформление проверено модератором 09 Мар 2013 16:13:49
ПОЖЕРТВОВАТЬ МНЕ НА ЛЕКАРСТВА И ЛЕЧЕНИЕ
(поддержка меня и моих релизов)
*******************************
**МОЖНО ЗДЕСЬ!**
*******************************
Как cкачать  ·  Как раздать  ·  Правильно оформить  ·  Поднять ратио!  
Dimon4ik_86
Стаж: 9 лет 9 мес.
Сообщений: 42
Ratio: 35,858
Поблагодарили: 2027
100%
ukraine.gif
А мне фильм понравился, смотрел его с огромно накрученными бассами и замирал на некоторых сценах просто!
AngelinaJoli
Стаж: 8 лет 7 мес.
Сообщений: 49
Ratio: 6,569
Поблагодарили: 1740
100%
russia.gif
Фильм понравился, Дужников сыграл реально на уровне, другие актеры как-то не постарались. Свою 4-ку, имхо, фильм заслуживает. Смотреть стоит.
SHEVA1991
Стаж: 7 лет 10 мес.
Сообщений: 51
Ratio: 11,432
100%
Хороший фильм!! Умеют же снимать если захотят!
DangeR~240V~
Стаж: 9 лет 8 мес.
Сообщений: 26
Ratio: 5,096
100%
russia.gif
Нормальный фильм, сделан хорошо. Советую к просмотру.
Hunterrus84
Стаж: 8 лет 7 мес.
Сообщений: 146
Ratio: 15,458
100%
Откуда: Ульяновск
russia.gif
эй кинокритики - ляпов много, ну а куда без них, вам лишь бы все обосрать. 7 зи 10 дам ему
Kardinalli
Стаж: 10 лет 8 мес.
Сообщений: 41
Ratio: 6,884
7.41%
kazakhstan.gif
ау, народ дайте плиз скорости ))
Показать сообщения:   
Начать новую тему   Ответить на тему    Торрент-трекер NNM-Club -> Отечественное кино -> Отечественные Фильмы (HD*Rip/LQ, DVDRip, SATRip, VHSRip) Часовой пояс: GMT + 3
Страницы:   Пред.  1, 2
Страница 2 из 2