Классический форум-трекер
canvas not supported
Нас вместе: 4 093 750

Здравствуйте, мы ваша крыша! (2005) DVDRip [H.264]


 
 
RSS
Начать новую тему   Ответить на тему    Торрент-трекер NNM-Club -> Отечественное кино -> Отечественные Фильмы (HD*Rip/LQ, DVDRip, SATRip, VHSRip)
Автор Сообщение
Николай Анатольевич ®
   
Почетный релизер
 
Стаж: 10 лет 1 мес.
Сообщений: 46538
Ratio: 10,129
Раздал: 7,718 TB
Поблагодарили: 2607792
100%
estonia.gif
Здравствуйте, мы ваша крыша! (2005) DVDRip [H.264]
Производство: Россия / Русское Счастье Интертейнмент, Студия Черепаха
Жанр: Комедия

Режиссер: Виталий Мухаметзянов
Актеры: Семён Стругачев, Андрей Федорцов, Михаил Полицеймако, Евгений Булдаков, Михаил Козаков, Инга Маневич, Петр Коршунков, Михаил Богдасаров, Мария Берсенева

Описание:
Провинциальный бизнесмен Каприщев должен вернуть долг. Пытаясь собрать нужную сумму, он лишается всех денег, ценных бумаг, любовницы, офиса и едва не самой жизни. В это же время маляр Дубровский, ремонтирующий офис Каприщева, неожиданно становится миллионером. Именно к нему непостижимым для самого Дубровского образом перекочевывают все активы бизнесмена…


Возраст: 0+ (для любой зрительской аудитории)

Продолжительность: 01:36:19
Качество видео: DVDRip (AVC)
Субтитры: Отсутствуют

Видео: AVC/H.264, 720x408, 1720 Kbps
Аудио: AC3, 6 ch, 448 Kbps
Общее
Уникальный идентификатор : 226758090757960670718421990917916800089 (0xAA98050BDD3CF37FAD5DBD8972173459)
Полное имя : F:\Раздачи\Раздачи Видео\Здравствуйте, мы ваша крыша! (2005) [H.264] DVDRip.mkv
Формат : Matroska
Версия формата : Version 2
Размер файла : 1,46 Гбайт
Продолжительность : 1 ч. 36 м.
Общий поток : 2170 Кбит/сек
Дата кодирования : UTC 2010-02-26 05:55:23
Программа кодирования : mkvmerge v3.1.0 ('Happy up here') built on Jan 19 2010 12:09:24
Библиотека кодирования : libebml v0.7.9 + libmatroska v0.8.1

Видео
Идентификатор : 1
Формат : AVC
Формат/Информация : Advanced Video Codec
Профиль формата : High@L4.1
Параметр CABAC формата : Да
Параметр ReFrames формата : 3 кадра
Идентификатор кодека : V_MPEG4/ISO/AVC
Продолжительность : 1 ч. 36 м.
Битрейт : 1720 Кбит/сек
Ширина : 720 пикселей
Высота : 408 пикселей
Соотношение сторон : 16:9
Частота кадров : 25,000 кадров/сек
Цветовое пространство : YUV
Субдискретизация насыщенности : 4:2:0
Битовая глубина : 8 бит
Тип развёртки : Прогрессивная
Бит/(Пиксели*Кадры) : 0.234
Размер потока : 1,13 Гбайт (77%)
Библиотека кодирования : x264 core 75 r1251kMod e553a4c
Настройки программы : cabac=1 / ref=3 / deblock=1:0:0 / analyse=0x3:0x113 / me=hex / subme=9 / psy=1 / psy_rd=1.0:0.0 / mixed_ref=1 / me_range=16 / chroma_me=1 / trellis=1 / 8x8dct=1 / cqm=0 / deadzone=21,11 / chroma_qp_offset=-2 / threads=3 / nr=0 / decimate=1 / mbaff=0 / bframes=3 / b_pyramid=0 / b_adapt=1 / b_bias=0 / direct=3 / wpredb=1 / keyint=250 / keyint_min=25 / scenecut=40 / rc_lookahead=40 / rc=2pass / mbtree=1 / bitrate=1720 / ratetol=1.0 / qcomp=0.60 / qpmin=10 / qpmax=51 / qpstep=4 / cplxblur=20.0 / qblur=0.5 / ip_ratio=1.40 / aq=1:1.00
Default : Да
Forced : Нет

Аудио
Идентификатор : 2
Формат : AC-3
Формат/Информация : Audio Coding 3
Расширение режима : CM (complete main)
Параметр Endianness формата : Big
Идентификатор кодека : A_AC3
Продолжительность : 1 ч. 36 м.
Вид битрейта : Постоянный
Битрейт : 448 Кбит/сек
Каналы : 6 каналов
Расположение каналов : Front: L C R, Side: L R, LFE
Частота : 48,0 КГц
Битовая глубина : 16 бит
Метод сжатия : С потерями
Размер потока : 309 Мбайт (21%)
Язык : Russian
Default : Да
Forced : Нет
Скриншоты:



Все одноименные релизы в Клубе

Время раздачи: 24/7 (до появления первых 3-5 скачавших)
[NNM-Club.ru]_Zdravstvuyte, myi vasha kryisha! (2005) [H.264] DVDRip.mkv.torrent
 Торрент: Платиновая раздача  Зарегистрирован
 
Скачать


Примагнититься
 Зарегистрирован:   30 Апр 2012 20:16:18
 Размер:   1,46 GB  (
 Рейтинг:   4,7 (Голосов: 53)
 Поблагодарили:   207
 Проверка:   Оформление проверено модератором 30 Апр 2012 21:17:09
Как cкачать  ·  Как раздать  ·  Правильно оформить  ·  Поднять ратио!  
K-131
Стаж: 10 лет 9 мес.
Сообщений: 431
Ratio: 111,125
Поблагодарили: 11738
100%
Спасибо зачётный фильм. :клево:

_________________
Показать сообщения:   
Начать новую тему   Ответить на тему    Торрент-трекер NNM-Club -> Отечественное кино -> Отечественные Фильмы (HD*Rip/LQ, DVDRip, SATRip, VHSRip) Часовой пояс: GMT + 3
Страница 1 из 1