Классический форум-трекер
canvas not supported
Нас вместе: 4 093 741

Моя мачеха - инопланетянка / My Stepmother Is an Alien (1988) DVD5


 
 
RSS
Начать новую тему   Ответить на тему    Торрент-трекер NNM-Club -> Классика кино и Старые фильмы до 90-х -> Старые Зарубежные Фильмы (DVD)
Автор Сообщение
Alex_Fors ®
Стаж: 9 лет 5 мес.
Сообщений: 387
Ratio: 102,587
Поблагодарили: 18457
100%
portugal.gif
Моя мачеха - инопланетянка / My Stepmother Is an Alien (1988) DVD5
Русское название: Моя мачеха - инопланетянка
Оригинальное название: My Stepmother Is an Alien
Производство: США
Год выпуска: 1988
Жанр: Фантастика, Комедия

Описание фильма:
Селеста — сексуальная инопланетянка с секретным заданием — совратить ничего не подозревающего физика Стива Миллса и добраться до его исследований, в которых содержится ключ к спасению ее планеты.

Разодетая по последней моде и закусывающая на завтрак батарейками, Селеста производит неизгладимое впечатление на земных мужчин. Счастливый муж вот-вот испытает близкие контакты космически невообразимой степени!

Режиссер: Ричард Бенджамин
Актеры: Дэн Эйкройд, Ким Бейсингер, Джон Ловиц, Элисон Хэннигэн, Джозеф Маэр, Сет Грин, Энн Прентисс, Уэсли Манн, Тони Джей, Питер Бромилов ...

Продолжительность: 01:43:36
Перевод: Двуголосый закадровый
Язык субтитров: русский, немецкий, испанский, французский
Вид субтитров: Вшитые отключаемые



Дата мировой премьеры: 9 декабря 1988

Видеокодек: MPEG-2
Битрейт видео: ~4566 kb/s
Размер кадра: 720x576@1024x576 (PAL 16:9) VBR Auto Letterboxed
Качество видео: DVD5
Аудио: (Dolby AC3, 2 ch) ~192 kb/s |Русский, одноголосый закадровый|
Аудио: (Dolby AC3, 2 ch) ~192 kb/s |Русский, двуголосый закадровый|
Аудио: (Dolby AC3, 2 ch) ~192 kb/s |Английский, оригинальный|
Аудио: (Dolby AC3, 2 ch) ~192 kb/s |Испанский, дублированный|
СЭМПЛ
Дополнительные материалы: Успехи и фильмография
Сатурн, 1990 год
Номинации:
>>>>>Лучшая актриса (Ким Бейсингер)<<<<<
>>>>>Лучший научно-фантастический фильм<<<<<
Title: Моя мачеха - инопланетянка.1988.DVD5
Size: 3.84 Gb ( 4 028 910,00 KBytes ) - DVD-5
Enabled regions: 1, 2, 3, 4, 5, 6

VTS_01 :
Play Length: 00:00:16
Video: PAL 4:3 (720x576) VBR
Audio:
Russian (Dolby AC3, 2 ch)

VTS_02 :
Play Length: 01:43:36
Video: PAL 16:9 (720x576) VBR, Auto Letterboxed
Audio:
Russian (Dolby AC3, 2 ch)
Russian (Dolby AC3, 2 ch)
English (Dolby AC3, 2 ch)
Espanol (Dolby AC3, 2 ch)
Subtitles:
English
Russian
Espanol
Francais
Deutsch

* Menus Information *

VIDEO_TS Menu
Video:
PAL 4:3 (720x576) VBR
English Language Unit :
Title Menu

VTS_01 Menu
Video:
PAL 4:3 (720x576) VBR
English Language Unit :
Root Menu

VTS_02 Menu
Video:
PAL 4:3 (720x576) VBR
English Language Unit :
Root Menu
Subpicture Menu
Audio Menu
Chapter (PTT) Menu
Формат : MPEG-PS
Размер файла : 1024 Мбайт
Продолжительность : 26 м.
Общий поток : 5442 Кбит/сек

Видео
Идентификатор : 224 (0xE0)
Формат : MPEG Video
Версия формата : Version 2
Профиль формата : Main@Main
Параметр BVOP формата : Да
Параметр матрицы формата : Выборочная
Параметр GOP формата : M=3, N=12
Продолжительность : 26 м.
Вид битрейта : Переменный
Битрейт : 4566 Кбит/сек
Максимальный битрейт : 9800 Кбит/сек
Ширина : 720 пикселей
Высота : 576 пикселей
Соотношение сторон : 16:9
Частота кадров : 25,000 кадров/сек
Стандарт вещания : PAL
Цветовое пространство : YUV
Субдискретизация насыщенности : 4:2:0
Битовая глубина : 8 бит
Тип развёртки : Чересстрочная
Порядок развёртки : Верхнее поле первое
Метод сжатия : С потерями
Бит/(Пиксели*Кадры) : 0.440
Размер потока : 859 Мбайт (84%)

Аудио #1
Идентификатор : 189 (0xBD)-128 (0x80)
Формат : AC-3
Формат/Информация : Audio Coding 3
Профиль формата : Dolby Digital
Расширение режима : CM (complete main)
Режим смешивания : DVD-Video
Продолжительность : 26 м.
Вид битрейта : Постоянный
Битрейт : 192 Кбит/сек
Каналы : 2 канала
Расположение каналов : Front: L R
Частота : 48,0 КГц
Битовая глубина : 16 бит
Метод сжатия : С потерями
Задержка видео : -632 мс.
Размер потока : 36,1 Мбайт (4%)

Аудио #2
Идентификатор : 189 (0xBD)-129 (0x81)
Формат : AC-3
Формат/Информация : Audio Coding 3
Профиль формата : Dolby Digital
Расширение режима : CM (complete main)
Режим смешивания : DVD-Video
Продолжительность : 26 м.
Вид битрейта : Постоянный
Битрейт : 192 Кбит/сек
Каналы : 2 канала
Расположение каналов : Front: L R
Частота : 48,0 КГц
Битовая глубина : 16 бит
Метод сжатия : С потерями
Задержка видео : -632 мс.
Размер потока : 36,1 Мбайт (4%)

Аудио #3
Идентификатор : 189 (0xBD)-130 (0x82)
Формат : AC-3
Формат/Информация : Audio Coding 3
Профиль формата : Dolby Digital
Расширение режима : CM (complete main)
Режим смешивания : DVD-Video
Продолжительность : 26 м.
Вид битрейта : Постоянный
Битрейт : 192 Кбит/сек
Каналы : 2 канала
Расположение каналов : Front: L R
Частота : 48,0 КГц
Битовая глубина : 16 бит
Метод сжатия : С потерями
Задержка видео : -632 мс.
Размер потока : 36,1 Мбайт (4%)

Аудио #4
Идентификатор : 189 (0xBD)-131 (0x83)
Формат : AC-3
Формат/Информация : Audio Coding 3
Профиль формата : Dolby Digital
Расширение режима : CM (complete main)
Режим смешивания : DVD-Video
Продолжительность : 26 м.
Вид битрейта : Постоянный
Битрейт : 192 Кбит/сек
Каналы : 2 канала
Расположение каналов : Front: L R
Частота : 48,0 КГц
Битовая глубина : 16 бит
Метод сжатия : С потерями
Задержка видео : -632 мс.
Размер потока : 36,1 Мбайт (4%)

Текст #1
Идентификатор : 189 (0xBD)-32 (0x20)
Формат : RLE
Формат/Информация : Run-length encoding
Режим смешивания : DVD-Video
Продолжительность : 26 м.
Задержка видео : 3 с. 280 мс.

Текст #2
Идентификатор : 189 (0xBD)-33 (0x21)
Формат : RLE
Формат/Информация : Run-length encoding
Режим смешивания : DVD-Video
Продолжительность : 26 м.
Задержка видео : 3 с. 0 мс.

Текст #3
Идентификатор : 189 (0xBD)-34 (0x22)
Формат : RLE
Формат/Информация : Run-length encoding
Режим смешивания : DVD-Video
Продолжительность : 26 м.
Задержка видео : 3 с. 160 мс.

Текст #4
Идентификатор : 189 (0xBD)-35 (0x23)
Формат : RLE
Формат/Информация : Run-length encoding
Режим смешивания : DVD-Video
Продолжительность : 26 м.
Задержка видео : 3 с. 280 мс.

Текст #5
Идентификатор : 189 (0xBD)-36 (0x24)
Формат : RLE
Формат/Информация : Run-length encoding
Режим смешивания : DVD-Video
Продолжительность : 26 м.
Задержка видео : 3 с. 280 мс.

Меню
Скриншоты:


Время раздачи: 15:00-20:00
[NNM-Club.ru]_Moya macheha - inoplanetyanka.1988.DVD5.torrent
 Торрент: Платиновая раздача  Зарегистрирован
 
Скачать


 Зарегистрирован:   29 Июл 2012 13:57:38
 Размер:   3,84 GB  (
 Рейтинг:   4,4 (Голосов: 27)
 Поблагодарили:   51
 Проверка:   Оформление проверено модератором 30 Июл 2012 19:27:36
Как cкачать  ·  Как раздать  ·  Правильно оформить  ·  Поднять ратио!  
sasha-taipan
Стаж: 9 лет
Сообщений: 115
Ratio: 2,784
Раздал: 7,435 TB
100%
singapore.gif
просто класс!

_________________
'Что человек курит?' Как правило возникает не когда ты слышишь, КАК он дышит, а когда видишь, ЧТО он пишет.
Kuzylad
Стаж: 9 лет 5 мес.
Сообщений: 16
Ratio: 11,224
100%
Комедия - класс!
Спасибо!!
seryy759
Стаж: 4 года
Сообщений: 1
Ratio: 2,043
100%
Раздачи нет и не будет?
Показать сообщения:   
Начать новую тему   Ответить на тему    Торрент-трекер NNM-Club -> Классика кино и Старые фильмы до 90-х -> Старые Зарубежные Фильмы (DVD) Часовой пояс: GMT + 3
Страница 1 из 1