Классический форум-трекер
canvas not supported
Нас вместе: 4 103 518

В тихом омуте / I See You (2019) WEB-DL [1080p] ATV


 
 
RSS
Начать новую тему   Ответить на тему    Торрент-трекер NNM-Club -> Аудио и Видео -> Зарубежное видео HD для устройств Apple
Автор Сообщение
Весельчак У ®
Модератор Apple
Стаж: 6 лет 4 мес.
Сообщений: 5312
Ratio: 149,59
Поблагодарили: 172907
93.97%
Откуда: От Москвы недалеко...
ussr.gif
В тихом омуте / I See You (2019) WEB-DL [1080p] ATV«True Evil Hides in Plain Sight»
Производство: США / Head Gear Films, Kreo Films FZ, Local Hero
Жанр: Триллер, детектив, драма, криминал

Режиссер: Адам Рэндолл
Продюсер: Джеймс Атертон, Джордан Байер, Эрик Фишер
Актеры: Хелен Хант, Джон Тенни, Джуда Льюис, Оуэн Тиг, Либэ Барер, Грегори Алан Уильямс, Эллисон Кинг, Эрика Александр, Дженнифер Грэйс, Адам Керн

Описание:
В идиллически тихом и спокойном городке бесследно пропадает двенадцатилетний мальчик. За расследование берется детектив, который переживает раскол в семье, узнав о недавней измене своей жены. Тем временем смертельная угроза подбирается уже к его собственному дому…


Рейтинг MPAA: R (лицам до 17 лет обязательно присутствие взрослого)
Дата мировой премьеры: 11 марта 2019
Дата российской премьеры: 6 декабря 2019, «Вольга»

Продолжительность: 01:38:13
Качество видео: WEB-DL 1080р Amazon
Перевод: Дублированный (iTunes)
Субтитры: Русские (full), английские (full, SDH)

Видео: H.264, 1920x872 (2,2:1), ~6241 kbps, 23.976 fps
Аудио#1: AAC, 2.0 ch, 224 Kbps - Русский DUB, iTunes
Аудио#2: AAC, 2.0 ch, 222 Kbps - English Original
Аудио#3: AC3, 6.0 ch, 384 Kbps - Русский DUB, iTunes
Аудио#4: AC3, 6.0 ch, 640 Kbps - English, Original

Общее
Полное имя : /Volumes/HDD/Movies/NNMC/I.See.You.2019.WEB-DL.1080p.m4v
Формат : MPEG-4
Идентификатор кодека : M4V (M4V /M4A /mp42/isom)
Размер файла : 5,30 Гбайт
Продолжительность : 1 ч. 38 м.
Режим общего битрейта : Переменный
Общий поток : 7719 Кбит/сек
Название фильма : В тихом омуте
Исполнитель : Адам Рэндолл
Режиссёр : Адам Рэндолл
Исполнитель : Хелен Хант / Джон Тенни / Джуда Льюис / Оуэн Тиг / Либэ Барер
Сценарист : Девон Грайе
Продюсер : Мэтт Уолдек / Джеймс Атертон
Студия-производитель : Head Gear Films, Kreo Films FZ, Local Hero
Жанр : Триллеры
Тип содержимого : Short Film
Дата записи : UTC 2019-12-06 08:00:00
Дата кодирования : UTC 2020-01-22 20:53:31
Дата пометки : UTC 2020-01-22 20:59:04
Авторское право : © 2019 Volga Film
Обложка : Yes
LongDescription : В идиллически тихом и спокойном городке бесследно пропадает десятилетний мальчик. За расследование берется детектив, который переживает раскол в семье, узнав о недавней измене своей жены. Тем временем смертельная угроза подбирается уже к его собственному дому…
AppleStoreCountry : Russia
AppleStoreCatalogID : 1488813189
ContentRating : ru-movie|18+|400|

Видео
Идентификатор : 1
Формат : AVC
Формат/Информация : Advanced Video Codec
Профиль формата : High@L4
Настройки формата : CABAC / 4 Ref Frames
Параметр CABAC формата : Да
Параметр ReFrames формата : 4 кадра
Идентификатор кодека : avc1
Идентификатор кодека/Информация : Advanced Video Coding
Продолжительность : 1 ч. 38 м.
Вид битрейта : Постоянный
Битрейт : 6241 Кбит/сек
Номинальный битрейт : 10000 Кбит/сек
Ширина : 1920 пикселей
Высота : 872 пикселя
Соотношение сторон : 2,2:1
Режим частоты кадров : Переменный
Частота кадров : 23,976 (24000/1001) кадра/сек
Минимальная частота кадров : 23,810 кадра/сек
Максимальная частота кадров : 24,390 кадра/сек
Цветовое пространство : YUV
Субдискретизация насыщенности : 4:2:0
Битовая глубина : 8 бит
Тип развёртки : Прогрессивная
Бит/(Пиксели*Кадры) : 0.155
Размер потока : 4,28 Гбайт (81%)
Язык : English
Дата кодирования : UTC 2020-01-22 20:53:31
Дата пометки : UTC 2020-01-22 20:59:03
Цветовой диапазон : Limited
Основные цвета : BT.709
Характеристики трансфера : BT.709
Коэффициенты матрицы : BT.709
Codec configuration box : avcC

Аудио #1
Идентификатор : 2
Формат : AAC LC
Формат/Информация : Advanced Audio Codec Low Complexity
Идентификатор кодека : mp4a-40-2
Продолжительность : 1 ч. 37 м.
Вид битрейта : Переменный
Битрейт : 224 Кбит/сек
Максимальный битрейт : 389 Кбит/сек
Каналы : 2 канала
Channel layout : L R
Частота : 48,0 КГц
Частота кадров : 46,875 кадров/сек (1024 SPF)
Метод сжатия : С потерями
Размер потока : 157 Мбайт (3%)
Язык : Russian
Default : Да
Alternate group : 1
Дата кодирования : UTC 2020-01-22 20:53:31
Дата пометки : UTC 2020-01-22 20:59:03
Fallback From : 4
tagc : public.main-program-content

Аудио #2
Идентификатор : 3
Формат : AAC LC
Формат/Информация : Advanced Audio Codec Low Complexity
Идентификатор кодека : mp4a-40-2
Продолжительность : 1 ч. 38 м.
Продолжительность оригинала : 1 ч. 38 м.
Вид битрейта : Переменный
Битрейт : 222 Кбит/сек
Максимальный битрейт : 399 Кбит/сек
Каналы : 2 канала
Channel layout : L R
Частота : 48,0 КГц
Частота кадров : 46,875 кадров/сек (1024 SPF)
Метод сжатия : С потерями
Размер потока : 156 Мбайт (3%)
Размер потока оригинала : 156 Мбайт (3%)
Язык : English
Default : Нет
Alternate group : 1
Дата кодирования : UTC 2020-01-22 20:53:31
Дата пометки : UTC 2020-01-22 20:55:11
Fallback From : 5
tagc : public.main-program-content

Аудио #3
Идентификатор : 4
Формат : AC-3
Формат/Информация : Audio Coding 3
Коммерческое название : Dolby Digital
Идентификатор кодека : ac-3
Продолжительность : 1 ч. 37 м.
Вид битрейта : Постоянный
Битрейт : 384 Кбит/сек
Каналы : 6 каналов
Channel layout : L R C LFE Ls Rs
Частота : 48,0 КГц
Частота кадров : 31,250 кадров/сек (1536 SPF)
Метод сжатия : С потерями
Размер потока : 269 Мбайт (5%)
Язык : Russian
Service kind : Complete Main
Default : Inherited From: 2
Alternate group : 1
Дата кодирования : UTC 2020-01-22 20:53:31
Дата пометки : UTC 2020-01-22 20:59:03
Fallback To : 2
tagc : public.main-program-content

Аудио #4
Идентификатор : 5
Формат : AC-3
Формат/Информация : Audio Coding 3
Коммерческое название : Dolby Digital
Идентификатор кодека : ac-3
Продолжительность : 1 ч. 38 м.
Вид битрейта : Постоянный
Битрейт : 640 Кбит/сек
Каналы : 6 каналов
Channel layout : L R C LFE Ls Rs
Частота : 48,0 КГц
Частота кадров : 31,250 кадров/сек (1536 SPF)
Метод сжатия : С потерями
Размер потока : 450 Мбайт (8%)
Язык : English
Service kind : Complete Main
Default : Нет
Alternate group : 1
Дата кодирования : UTC 2020-01-22 20:53:31
Дата пометки : UTC 2020-01-22 20:55:11
Fallback To : 3
tagc : public.main-program-content

Текст #1
Идентификатор : 6
Формат : Timed Text
Режим смешивания : sbtl
Идентификатор кодека : tx3g
Продолжительность : 1 ч. 31 м.
Вид битрейта : Переменный
Битрейт : 51 бит/сек
Размер потока : 34,4 Кбайт (0%)
Язык : Russian
Default : Да
Forced : Нет
Alternate group : 2
Дата кодирования : UTC 2020-01-22 20:53:31
Дата пометки : UTC 2020-01-22 20:59:03
tagc : public.main-program-content

Текст #2
Идентификатор : 7
Формат : Timed Text
Режим смешивания : sbtl
Идентификатор кодека : tx3g
Продолжительность : 1 ч. 27 м.
Вид битрейта : Переменный
Битрейт : 37 бит/сек
Размер потока : 23,6 Кбайт (0%)
Язык : English
Default : Нет
Forced : Нет
Alternate group : 2
Дата кодирования : UTC 2020-01-22 20:53:31
Дата пометки : UTC 2020-01-22 20:59:03
tagc : public.main-program-content

Текст #3
Идентификатор : 8
Формат : Timed Text
Режим смешивания : sbtl
Идентификатор кодека : tx3g
Продолжительность : 1 ч. 31 м.
Вид битрейта : Переменный
Битрейт : 42 бит/сек
Размер потока : 28,3 Кбайт (0%)
Язык : English
Default : Нет
Forced : Нет
Alternate group : 2
Дата кодирования : UTC 2020-01-22 20:53:31
Дата пометки : UTC 2020-01-22 20:59:03
tagc : public.accessibility.transcribes-spoken-dialog


Name: В тихом омуте
Artist: Адам Рэндолл
Media Kind: Movie
HD Video: 1080p
Genre: Триллеры
Release Date: 2019-12-06T08:00:00Z
Long Description: В идиллически тихом и спокойном городке бесследно пропадает десятилетний мальчик. За расследование берется детектив, который переживает раскол в семье, узнав о недавней измене своей жены. Тем временем смертельная угроза подбирается уже к его собственному дому…
Rating: ru-movie|18+|400|
Studio: Head Gear Films, Kreo Films FZ, Local Hero
Cast: Хелен Хант, Джон Тенни, Джуда Льюис, Оуэн Тиг, Либэ Барер
Director: Адам Рэндолл
Producers: Мэтт Уолдек, Джеймс Атертон
Screenwriters: Девон Грайе
Copyright: © 2019 Volga Film
content ID: 1488813189
iTunes Country: 143469

Скриншоты:


Все одноименные релизы в Клубе
Время раздачи: 24/7 (до появления первых 3-5 скачавших)

Релиз подготовлен для просмотра на Apple TV, iPad, iPhone, iPod Touch.
Для просмотра данного релиза на компьютере с ОС Windows рекомендуется использовать VLC media player
[NNMClub.to]_I.See.You.2019.WEB-DL.1080p.m4v.torrent
 Торрент: Платиновая раздача  Зарегистрирован
 
Скачать


Примагнититься
 Зарегистрирован:   23 Янв 2020 00:30:21
 Размер:   5,3 GB  (
 Рейтинг:    (Голосов: 8)
 Поблагодарили:   55
 Проверка:   Оформление проверено модератором 23 Янв 2020 08:07:04
Как cкачать  ·  Как раздать  ·  Правильно оформить  ·  Поднять ратио!  

_________________
«Всё против нас, только ветер навстречу…».
🍏Apple iMac 21.5 (mid 2011) / Intel Core i5 2.7 GHz / AMD Radeon HD 6770M 512 Mb / 12GB DDR3 / Apple Trackpad, Apple Keyboard / macOS High Sierra 10.13.6 (17G12034)
antik_2008
Стаж: 2 года 5 мес.
Сообщений: 10
Ratio: 46,358
100%
Не плохой фильм :)
Setbeone
Стаж: 5 лет 10 мес.
Сообщений: 193
Ratio: 11,285
11.07%
russia.gif
На первом скрине Хелен Хант? Оо
Debor59
Стаж: 9 лет 8 мес.
Сообщений: 181
Ratio: 3,263
100%
Откуда: Николаев
ukraine.gif
надо понимать полное название Я вижу тебя в тихом омуте ?
Novokuznetsk
Стаж: 9 лет 9 мес.
Сообщений: 88
Ratio: 1,094
100%
Откуда: Новокузнецк
ussr.gif
Фильм сперва кажется не очень, но потом затянуло, досмотрел с интересом. В целом понравился.

_________________
Физкультура лечит, спорт калечит.
vanekKF
Стаж: 8 лет 4 мес.
Сообщений: 994
Ratio: 29,363
Раздал: 46,05 TB
100%
Откуда: из ..... на лыжах
Debor59 писал(а): Перейти к сообщению
надо понимать полное название Я вижу тебя в тихом омуте ?


Как хотите так и понимайте (МОЛЧА). Хватить марать своими мозговыми экскрементами форум. Цензура
NaparNick
Стаж: 8 лет 3 мес.
Сообщений: 98
Ratio: 2,879
100%
ukraine.gif
Debor59 писал(а): Перейти к сообщению
надо понимать полное название Я вижу тебя в тихом омуте ?

это, как обычно, фантазеры-затейники локализаторы Хулиганю
Показать сообщения:   
Начать новую тему   Ответить на тему    Торрент-трекер NNM-Club -> Аудио и Видео -> Зарубежное видео HD для устройств Apple Часовой пояс: GMT + 3
Страница 1 из 1