Классический форум-трекер
canvas not supported
Нас вместе: 4 093 265

12 стульев (1976) DVDRip [H.264] (4 серии из 4)


Страницы:   Пред.  1, 2, 3, 4 
 
RSS
Начать новую тему   Ответить на тему    Торрент-трекер NNM-Club -> Классика сериалов и многосерийное кино до 90-х -> Отечественная классика сериалов и старое многосерийное кино до 90-х
Автор Сообщение
Bugman ®
RG Всё лучшее - детям!
Модератор детского Видео
 
Стаж: 7 лет 6 мес.
Сообщений: 1187
Ratio: 136,476
Поблагодарили: 50136
100%
12 стульев (1976) DVDRip [H.264] (4 серии из 4)
Производство: СССР
Жанр: комедия, детектив, приключения

Режиссер: Марк Захаров
Актеры: Андрей Миронов, Анатолий Папанов, Ролан Быков, Олег Табаков, Николай Скоробогатов, Татьяна Пельтцер, Любовь Полищук, Зиновий Гердт и др.

Описание:
Во время революции и последовавшего за ней краткого периода военного коммунизма многие прятали свои ценности как можно надежнее. И вот Ипполит Матвеевич Воробьянинов, бывший Старгородский предводитель дворянства и светский лев, а ныне - скромный делопроизводитель ЗАГСа, узнает от умирающей тещи, что некогда она спрятала свои бриллианты и жемчуга в общей сложности на 150 000 золотых рублей под обивку одного из двенадцати стульев гостиного гарнитура работы известного мастера Гамбса. Бросив все, Воробьянинов бросается на поиски стульев, в чем ему, конечно же, небескорыстно, берется помочь молодой авантюрист, "великий комбинатор" Остап Бендер. Найти следы разрозненного гарнитура непросто. Не облегчает положения и то, что перед смертью теща Воробьянинова открыла тайну сокровищ и своему исповеднику, отцу Федору, всю жизнь мечтавшему о собственном свечном заводике в Самаре...


Дата выхода DVD релиза: 1 марта 2011, «ВС трейд»

Релиз от: Encoded by Bugman
Продолжительность: 01:05:21 / 01:05:30 / 01:19:53 / 01:17:47
Качество видео: DVDRip

Видео: AVC/H.264 720x568@768x568 (4:3); ~2085 Kbps; 0.200 bpp
Аудио #1: AC3, 5.1 ch, 448 Kbps
Аудио #2: AC3, 1.0 ch, 192 Kbps
Код: выделить все

General
Complete name               : 3 Серия.mkv
Format                      : Matroska
Format version              : Version 4 / Version 2
File size                   : 1.45 GiB
Duration                    : 1h 19mn
Overall bit rate            : 2 597 Kbps
Movie name                  : 12 стульев (1976) 3 Серия DVDRip by Bugman
Encoded date                : UTC 2015-03-25 16:35:41
Writing application         : mkvmerge v6.1.0 ('Old Devil') built on Mar  4 2013 09:10:42
Writing library             : libebml v1.3.0 + libmatroska v1.4.0
Attachments                 : logfile.log

Video
ID                          : 1
Format                      : AVC
Format/Info                 : Advanced Video Codec
Format profile              : High@L4.1
Format settings, CABAC      : Yes
Format settings, ReFrames   : 7 frames
Codec ID                    : V_MPEG4/ISO/AVC
Duration                    : 1h 19mn
Bit rate                    : 1 906 Kbps
Width                       : 720 pixels
Height                      : 568 pixels
Display aspect ratio        : 4:3
Frame rate mode             : Constant
Frame rate                  : 25.000 fps
Color space                 : YUV
Chroma subsampling          : 4:2:0
Bit depth                   : 8 bits
Scan type                   : Progressive
Bits/(Pixel*Frame)          : 0.186
Stream size                 : 1.06 GiB (73%)
Title                       : x264 720x568@768x568; 4:3; 25.000 fps; 1906 Kbps; 0.186 bpp
Writing library             : x264 core 142 r2431 ac76440
Encoding settings           : cabac=1 / ref=7 / deblock=1:-1:-1 / analyse=0x3:0x133 / me=umh / subme=9 / psy=1 / psy_rd=1.00:0.08 / mixed_ref=1 / me_range=32 / chroma_me=1 / trellis=2 / 8x8dct=1 / cqm=0 / deadzone=21,11 / fast_pskip=0 / chroma_qp_offset=-3 / threads=6 / lookahead_threads=1 / sliced_threads=0 / nr=0 / decimate=0 / interlaced=0 / bluray_compat=0 / constrained_intra=0 / bframes=9 / b_pyramid=2 / b_adapt=2 / b_bias=0 / direct=3 / weightb=1 / open_gop=0 / weightp=2 / keyint=250 / keyint_min=25 / scenecut=40 / intra_refresh=0 / rc_lookahead=60 / rc=crf / mbtree=1 / crf=17.4 / qcomp=0.70 / qpmin=0 / qpmax=69 / qpstep=4 / vbv_maxrate=50000 / vbv_bufsize=62500 / crf_max=0.0 / nal_hrd=none / filler=0 / ip_ratio=1.40 / aq=1:0.80
Language                    : Russian
Default                     : Yes
Forced                      : No

Audio #1
ID                          : 2
Format                      : AC-3
Format/Info                 : Audio Coding 3
Mode extension              : CM (complete main)
Format settings, Endianness : Big
Codec ID                    : A_AC3
Duration                    : 1h 19mn
Bit rate mode               : Constant
Bit rate                    : 448 Kbps
Channel(s)                  : 6 channels
Channel positions           : Front: L C R, Side: L R, LFE
Sampling rate               : 48.0 KHz
Frame rate                  : 31.250 fps (1536 spf)
Compression mode            : Lossy
Stream size                 : 256 MiB (17%)
Language                    : Russian
Default                     : Yes
Forced                      : No

Audio #2
ID                          : 3
Format                      : AC-3
Format/Info                 : Audio Coding 3
Mode extension              : CM (complete main)
Format settings, Endianness : Big
Codec ID                    : A_AC3
Duration                    : 1h 19mn
Bit rate mode               : Constant
Bit rate                    : 192 Kbps
Channel(s)                  : 1 channel
Channel positions           : Front: C
Sampling rate               : 48.0 KHz
Frame rate                  : 31.250 fps (1536 spf)
Compression mode            : Lossy
Stream size                 : 110 MiB (7%)
Language                    : Russian
Default                     : No
Forced                      : No
Скриншоты:


Все раздачи 12 стульев (1976) на NoNaMe
Время раздачи: 24/7
[NNM-Club.me]_12 stul'ev (1976).torrent
 Торрент: Платиновая раздача  Зарегистрирован
 
Скачать


Примагнититься
 Зарегистрирован:   02 Фев 2016 10:55:33
 Размер:   5,42 GB  (
 Рейтинг:   4,7 (Голосов: 311)
 Поблагодарили:   906
 Проверка:   Оформление проверено модератором 02 Фев 2016 21:36:12
Как cкачать  ·  Как раздать  ·  Правильно оформить  ·  Поднять ратио!  
oltaviro
Стаж: 9 лет 1 мес.
Сообщений: 66
Ratio: 1,18
0.19%
russia.gif
Далеко не лучшая экранизация. От Миронова ничего, кроме самолюбования.
elektron66
Стаж: 9 лет 8 мес.
Сообщений: 245
Ratio: 11,117
100%
russia.gif
ser477 писал(а): Перейти к сообщению
Вариант Гайдая (1971 год) смотрится как колхозная самодеятельность.

Абсолютно точно сказано! Я гайдаевский вариант ни разу в жизни до конца не досмотрел. Просто потому, что это такая лажа, что не хватает желания досматривать. Такое ощущение, что Гайдай даже роман не читал и крайне неудачно экранизировал Ильфа и Петрова. Ошибка его в том, что снял он 12 стульев в своем стиле, когда все вокруг бестолково бегают, создают суету. Может это и было оправдано при съемках фильмов с Шуриком, но для 12 стульев это совершенно неприемлемо. Посмотрите, как у Гайдая Бендер Гомиашвили входит в богадельню к хору бабулек - у него целая бестолковая, если не сказать, тупейшая сцена битвы с дверью. Ну дурь несусветная!
likko7
Стаж: 9 лет 2 мес.
Сообщений: 32
Ratio: 16,532
Поблагодарили: 509
100%
nnm-club.gif
Когда не было варианта Захарова, то у меня возникал вопрос:"Почему Гайдай не взял Миронова на роль Остапа. Увидев Миронова в этом варианте, понял, что Гайдай был прав.

А спорить, какой вариант "12 стульев" лучше, Гайдая или Захарова, не буду.

Считаю, что лучший вариант - это книга. :пока:
xcblost

Online
Стаж: 9 лет 6 мес.
Сообщений: 78
Ratio: 10,714
2.1%
Когда Андрея Миронова спросили о самой неудачной роли в кино, он назвал 12 стульев...
Актеры замечательные, но ИМХО чего-то не хватает... На мой взгляд серьезности...
Гайдай снимал комедии на полном серьезе... Как-то так...
Ovdak
Стаж: 8 лет 5 мес.
Сообщений: 10
Ratio: 7,986
100%
Откуда: Воронеж
Спасибо! Отличный фильм
Показать сообщения:   
Начать новую тему   Ответить на тему    Торрент-трекер NNM-Club -> Классика сериалов и многосерийное кино до 90-х -> Отечественная классика сериалов и старое многосерийное кино до 90-х Часовой пояс: GMT + 3
Страницы:   Пред.  1, 2, 3, 4
Страница 4 из 4