Классический форум-трекер
canvas not supported
Нас вместе: 4 117 862

Тайлер Рейк: Операция по спасению / Эвакуация / Extraction (2020) WEB-DL [1080p] ATV


 
 
RSS
Начать новую тему   Ответить на тему    Торрент-трекер NNM-Club -> Аудио и Видео -> Зарубежное видео HD для устройств Apple
Автор Сообщение
Весельчак У ®
Модератор Apple
Uploader 100+
Стаж: 6 лет 6 мес.
Сообщений: 6375
Ratio: 162,615
Поблагодарили: 205208
92.01%
Откуда: От Москвы недалеко...
ussr.gif
Тайлер Рейк: Операция по спасению / Эвакуация / Extraction (2020) WEB-DL [1080p] ATV
Производство: США / AGBO, India Take One Productions, T.G.I.M Films
Жанр: Боевик

Режиссер: Сэм Харгрейв
Продюсер: Эрик Гиттер, Крис Хемсворт, Питер Шверин
Актеры: Крис Хемсворт, Голшифте Фарахани, Дэвид Харбор, Рудракш Джайсвал, Рандип Худа, Панкадж Трипати, Крис Джай Алекс, Прияншу Пайнюли, Шатаф Фигар, Патрик Ньюэлл

Описание:
Наёмнику Тайлеру Рэйку поручают освободить сына международного преступника. Мальчик - пешка в войне двух наркобаронов, и его держат в заложниках в городе Дакка, столице государства Бангладеш и одном из самых неприступных мест в мире.


Рейтинг MPAA: R (лицам до 17 лет обязательно присутствие взрослого)
Дата мировой премьеры: 24 апреля 2020

Релиз от: NNMCLub

Продолжительность: 01:57:26
Качество видео: WEB-DL 1080р
Перевод: Дублированный (Пифагор / Netflix)
Субтитры: Русские (Forced Full) Английские (Forced Full)

Видео: H.264, 1920x1080 (16:9), ~4870 kbps, 24.000 fps
Аудио#1: AAC, 2.0 ch, 230 Kbps - Русский DUB, Пифагор / Netflix
Аудио#2: AAC, 2.0 ch, 230 Kbps - English Original
Аудио#3: AC3, 6.0 ch, 640 Kbps - Русский DUB, Пифагор / Netflix
Аудио#4: AC3, 6.0 ch, 448 Kbps - English Original

Общее
Полное имя : /Volumes/HDD/Movies/NNMClub/Extraction.2020.WEB-DL.1080p.m4v
Формат : MPEG-4
Идентификатор кодека : M4V (M4V /M4A /mp42/isom)
Размер файла : 5,21 Гбайт
Продолжительность : 1 ч. 57 м.
Режим общего битрейта : Переменный
Общий поток : 6 353 Кбит/сек
Название фильма : Extraction
Исполнитель : Sam Hargrave
Режиссёр : Sam Hargrave
Исполнитель : Chris Hemsworth / Rudhraksh Jaiswal / Randeep Hooda / Golshifteh Farahani / Pankaj Tripathi / Priyanshu Painyuli / David Harbour / Suraj Rikame / Shataf Figar / Chris Jai Alex / Patrick Newall / Vonzell Carter / Murtaza Kathawala / Adam Bessa / Rayna Campbell / Piyush Khati / Anup Sharma / Shivam Vichare / Neha Mahajan / Pallas Prajapati / Wayne Blair / Sam Hargrave / Sudipto Balav
Сценарист : Anthony Russo / Joe Russo / Joe Russo / Ande Parks / Ande Parks
Продюсер : Anthony Russo / Joe Russo / Chris Hemsworth / Eric Gitter / Mike Larocca / Peter Schwerin
Исполнительный продюсер : Wang Zhonglei, Todd Makurath, Patrick Newall, David Guillod, Steven V. Scavelli, Ari Costa, Hu Junyi
Студия-производитель : AGBO, Thematic Entertainment, T.G.I.M. Films, India Take One Productions
Жанр : Action, Thriller
Тип содержимого : Short Film
Дата записи : UTC 2020-04-24 12:00:00
Дата кодирования : UTC 2020-04-25 07:08:25
Дата пометки : UTC 2020-04-25 07:14:29
Авторское право : © 2013 Colton Productions , Inc.
Обложка : Yes
LongDescription : Tyler Rake, a fearless black market mercenary, embarks on the most deadly extraction of his career when he's enlisted to rescue the kidnapped son of an imprisoned international crime lord.
AppleStoreCountry : Russia
AppleStoreCatalogID : 1027241730
ContentRating : mpaa|R|400|

Видео
Идентификатор : 1
Формат : AVC
Формат/Информация : Advanced Video Codec
Профиль формата : Main@L4
Настройки формата : CABAC / 3 Ref Frames
Параметр CABAC формата : Да
Параметр ReFrames формата : 3 кадра
Идентификатор кодека : avc1
Идентификатор кодека/Информация : Advanced Video Coding
Продолжительность : 1 ч. 57 м.
Продолжительность оригинала : 1 ч. 57 м.
Вид битрейта : Переменный
Битрейт : 4 870 Кбит/сек
Максимальный битрейт : 7 305 Кбит/сек
Ширина : 1 920 пикселей
Высота : 1 080 пикселей
Соотношение сторон : 16:9
Режим частоты кадров : Переменный
Частота кадров : 24,000 кадра/сек
Минимальная частота кадров : 23,810 кадра/сек
Максимальная частота кадров : 24,390 кадра/сек
Цветовое пространство : YUV
Субдискретизация насыщенности : 4:2:0
Битовая глубина : 8 бит
Тип развёртки : Прогрессивная
Бит/(Пиксели*Кадры) : 0.098
Размер потока : 3,94 Гбайт (76%)
Размер потока оригинала : 3,94 Гбайт (76%)
Библиотека кодирования : x264 core 148 r2717 0d2410d
Настройки программы : cabac=1 / ref=3 / deblock=1:0:0 / analyse=0x1:0x111 / me=umh / subme=10 / psy=1 / psy_rd=1.00:0.00 / mixed_ref=1 / me_range=24 / chroma_me=1 / trellis=2 / 8x8dct=0 / cqm=0 / deadzone=21,11 / fast_pskip=1 / chroma_qp_offset=-2 / threads=6 / lookahead_threads=1 / sliced_threads=0 / nr=0 / decimate=1 / interlaced=0 / bluray_compat=0 / stitchable=1 / constrained_intra=0 / bframes=2 / b_pyramid=0 / b_adapt=2 / b_bias=0 / direct=3 / weightb=1 / open_gop=0 / weightp=2 / keyint=250 / keyint_min=24 / scenecut=0 / intra_refresh=0 / rc_lookahead=48 / rc=2pass / mbtree=1 / bitrate=4870 / ratetol=1.0 / qcomp=0.50 / qpmin=6 / qpmax=51 / qpstep=4 / cplxblur=20.0 / qblur=0.5 / vbv_maxrate=7305 / vbv_bufsize=9740 / nal_hrd=vbr / filler=0 / ip_ratio=1.40 / aq=1:1.00
Язык : English
Дата кодирования : UTC 2020-04-25 07:08:25
Дата пометки : UTC 2020-04-25 07:14:28
Codec configuration box : avcC

Аудио #1
Идентификатор : 2
Формат : AAC LC
Формат/Информация : Advanced Audio Codec Low Complexity
Идентификатор кодека : mp4a-40-2
Продолжительность : 1 ч. 57 м.
Вид битрейта : Переменный
Битрейт : 229 Кбит/сек
Максимальный битрейт : 429 Кбит/сек
Каналы : 2 канала
Channel layout : L R
Частота : 48,0 КГц
Частота кадров : 46,875 кадров/сек (1024 SPF)
Метод сжатия : С потерями
Размер потока : 192 Мбайт (4%)
Язык : Russian
Default : Да
Alternate group : 1
Дата кодирования : UTC 2020-04-25 07:08:25
Дата пометки : UTC 2020-04-25 07:14:28
Fallback From : 4
tagc : public.main-program-content

Аудио #2
Идентификатор : 3
Формат : AAC LC
Формат/Информация : Advanced Audio Codec Low Complexity
Идентификатор кодека : mp4a-40-2
Продолжительность : 1 ч. 57 м.
Продолжительность оригинала : 1 ч. 57 м.
Вид битрейта : Переменный
Битрейт : 227 Кбит/сек
Максимальный битрейт : 416 Кбит/сек
Каналы : 2 канала
Channel layout : L R
Частота : 48,0 КГц
Частота кадров : 46,875 кадров/сек (1024 SPF)
Метод сжатия : С потерями
Размер потока : 191 Мбайт (4%)
Размер потока оригинала : 191 Мбайт (4%)
Язык : English
Default : Нет
Alternate group : 1
Дата кодирования : UTC 2020-04-25 07:08:25
Дата пометки : UTC 2020-04-25 07:10:58
Fallback From : 5
tagc : public.main-program-content

Аудио #3
Идентификатор : 4
Формат : AC-3
Формат/Информация : Audio Coding 3
Коммерческое название : Dolby Digital
Идентификатор кодека : ac-3
Продолжительность : 1 ч. 57 м.
Вид битрейта : Постоянный
Битрейт : 640 Кбит/сек
Каналы : 6 каналов
Channel layout : L R C LFE Ls Rs
Частота : 48,0 КГц
Частота кадров : 31,250 кадров/сек (1536 SPF)
Метод сжатия : С потерями
Размер потока : 538 Мбайт (10%)
Язык : Russian
Service kind : Complete Main
Default : Inherited From: 2
Alternate group : 1
Дата кодирования : UTC 2020-04-25 07:08:25
Дата пометки : UTC 2020-04-25 07:14:28
Fallback To : 2
tagc : public.main-program-content

Аудио #4
Идентификатор : 5
Формат : AC-3
Формат/Информация : Audio Coding 3
Коммерческое название : Dolby Digital
Идентификатор кодека : ac-3
Продолжительность : 1 ч. 57 м.
Вид битрейта : Постоянный
Битрейт : 448 Кбит/сек
Каналы : 6 каналов
Channel layout : L R C LFE Ls Rs
Частота : 48,0 КГц
Частота кадров : 31,250 кадров/сек (1536 SPF)
Метод сжатия : С потерями
Размер потока : 376 Мбайт (7%)
Язык : English
Service kind : Complete Main
Default : Нет
Alternate group : 1
Дата кодирования : UTC 2020-04-25 07:08:25
Дата пометки : UTC 2020-04-25 07:10:58
Fallback To : 3
tagc : public.main-program-content

Текст #1
Идентификатор : 6
Формат : Timed Text
Режим смешивания : sbtl
Идентификатор кодека : tx3g
Продолжительность : 1 ч. 55 м.
Вид битрейта : Переменный
Битрейт : 8 бит/сек
Размер потока : 7,16 Кбайт (0%)
Язык : Russian
Default : Да
Forced : Нет
Alternate group : 2
Дата кодирования : UTC 2020-04-25 07:08:25
Дата пометки : UTC 2020-04-25 07:14:28
tagc : public.subtitles.forced-only

Текст #2
Идентификатор : 7
Формат : Timed Text
Режим смешивания : sbtl
Идентификатор кодека : tx3g
Продолжительность : 1 ч. 55 м.
Вид битрейта : Переменный
Битрейт : 35 бит/сек
Размер потока : 29,5 Кбайт (0%)
Язык : Russian
Default : Нет
Forced : Нет
Alternate group : 2
Дата кодирования : UTC 2020-04-25 07:08:25
Дата пометки : UTC 2020-04-25 07:14:28
tagc : public.main-program-content

Текст #3
Идентификатор : 8
Формат : Timed Text
Режим смешивания : sbtl
Идентификатор кодека : tx3g
Продолжительность : 1 ч. 26 м.
Вид битрейта : Переменный
Битрейт : 7 бит/сек
Размер потока : 4,60 Кбайт (0%)
Язык : English
Default : Нет
Forced : Нет
Alternate group : 2
Дата кодирования : UTC 2020-04-25 07:08:25
Дата пометки : UTC 2020-04-25 07:14:28
tagc : public.subtitles.forced-only

Текст #4
Идентификатор : 9
Формат : Timed Text
Режим смешивания : sbtl
Идентификатор кодека : tx3g
Продолжительность : 1 ч. 40 м.
Вид битрейта : Переменный
Битрейт : 39 бит/сек
Размер потока : 29,2 Кбайт (0%)
Язык : English
Default : Нет
Forced : Нет
Alternate group : 2
Дата кодирования : UTC 2020-04-25 07:08:25
Дата пометки : UTC 2020-04-25 07:14:28
tagc : public.main-program-content

Name: Extraction
Artist: Sam Hargrave
Media Kind: Movie
HD Video: 1080p
Genre: Action, Thriller
Release Date: 2020-04-24T12:00:00Z
Long Description: Tyler Rake, a fearless black market mercenary, embarks on the most deadly extraction of his career when he's enlisted to rescue the kidnapped son of an imprisoned international crime lord.
Rating: mpaa|R|400|
Studio: AGBO, Thematic Entertainment, T.G.I.M. Films, India Take One Productions
Cast: Chris Hemsworth, Rudhraksh Jaiswal, Randeep Hooda, Golshifteh Farahani, Pankaj Tripathi, Priyanshu Painyuli, David Harbour, Suraj Rikame, Shataf Figar, Chris Jai Alex, Patrick Newall, Vonzell Carter, Murtaza Kathawala, Adam Bessa, Rayna Campbell, Piyush Khati, Anup Sharma, Shivam Vichare, Neha Mahajan, Pallas Prajapati, Wayne Blair, Sam Hargrave, Sudipto Balav
Director: Sam Hargrave
Producers: Anthony Russo, Joe Russo, Chris Hemsworth, Eric Gitter, Mike Larocca, Peter Schwerin
Executive Producer: Wang Zhonglei, Todd Makurath, Patrick Newall, David Guillod, Steven V. Scavelli, Ari Costa, Hu Junyi
Screenwriters: Anthony Russo, Joe Russo, Joe Russo, Ande Parks, Ande Parks
Copyright: © 2013 Colton Productions , Inc.
content ID: 1027241730
iTunes Country: 143469

Скриншоты:


Все одноименные релизы в Клубе
Время раздачи: 24/7 (до появления первых 3-5 скачавших)

Релиз подготовлен для просмотра на Apple TV, iPad, iPhone, iPod Touch.
Для просмотра данного релиза на компьютере с ОС Windows рекомендуется использовать VLC media player
[NNMClub.to]_Extraction.2020.WEB-DL.1080p.m4v.torrent
 Торрент: Платиновая раздача  Зарегистрирован
 
Скачать


Примагнититься
 Зарегистрирован:   25 Апр 2020 10:35:50
 Размер:   5,21 GB  (
 Рейтинг:   4,9 (Голосов: 44)
 Поблагодарили:   235
 Проверка:   Оформление проверено модератором 25 Апр 2020 15:50:27
Как cкачать  ·  Как раздать  ·  Правильно оформить  ·  Поднять ратио!  

_________________
«Всё против нас, только ветер навстречу…».
🍏Apple iMac 21.5 (mid 2011) / Intel Core i5 2.7 GHz / AMD Radeon HD 6770M 512 Mb / 12GB DDR3 / Apple Trackpad, Apple Keyboard / macOS High Sierra 10.13.6 (17G13033)
digreese
Стаж: 7 лет 9 мес.
Сообщений: 3
Ratio: 84,341
100%
Где, [однако], субтитры?!!
Весельчак У ®
Модератор Apple
Uploader 100+
Стаж: 6 лет 6 мес.
Сообщений: 6375
Ratio: 162,615
Поблагодарили: 205208
92.01%
Откуда: От Москвы недалеко...
ussr.gif
digreese писал(а): Перейти к сообщению
Где, [однако], субтитры?!!
Если у вас плеер не воспроизводит субтитры, то это в этом виноват?

_________________
«Всё против нас, только ветер навстречу…».
🍏Apple iMac 21.5 (mid 2011) / Intel Core i5 2.7 GHz / AMD Radeon HD 6770M 512 Mb / 12GB DDR3 / Apple Trackpad, Apple Keyboard / macOS High Sierra 10.13.6 (17G13033)
yefrvlan
Стаж: 5 лет 11 мес.
Сообщений: 3
Ratio: 4,995
0.47%
Фильм понравился, очень динамичный боевичёк. Озвучка правда подвела - Пифагор / Netflix осилили только английский, а вот с других языков перевода нет, приходится только догадываться о чём речь. Хотя, может задумка такая, но субтитры тоже не нашёл, увы.
digreese
Стаж: 7 лет 9 мес.
Сообщений: 3
Ratio: 84,341
100%
Весельчак У писал(а): Перейти к сообщению
digreese писал(а): Перейти к сообщению
Где, [однако], субтитры?!!
Если у вас плеер не воспроизводит субтитры, то это в этом виноват?


Вот здесь Тайлер Рейк: Операция по спасению / Extraction (2020) WEBRip [H.264/720p-LQ] есть субтитры, а в этой раздаче их нет. Комп не видит тоже, как и блюрей.
djklerik
Стаж: 10 лет 3 мес.
Сообщений: 159
Ratio: 16,981
100%
Откуда: Москва
russia.gif
фильм очень понравился, динамичный, экшена хватает.
Смотрится на одном дыхании.

Минус конечно того, что не полный дубляж, но не соглашусь с комментариями выше, субтитры есть, по крайней мере у меня на телевизоре самсунг отображались, на выбор - 2 русских.

Автору спасибо, фильм очень рекомендую к просмотру!
Показать сообщения:   
Начать новую тему   Ответить на тему    Торрент-трекер NNM-Club -> Аудио и Видео -> Зарубежное видео HD для устройств Apple Часовой пояс: GMT + 3
Страница 1 из 1