Классический форум-трекер
canvas not supported
Нас вместе: 4 120 674

Первая передача на НТВ. Автомобильная передача (02.08.2020) WEBRip [H.264/1080-LQ]


 
 
RSS
Начать новую тему   Ответить на тему    Торрент-трекер NNM-Club -> Документалистика и Телепередачи -> За рулем
Автор Сообщение
Катюша ®
Мне бы в небо!
Стаж: 8 лет 4 мес.
Сообщений: 569
Ratio: 222,622
Поблагодарили: 49207
100%
witch.png
Первая передача на НТВ. Автомобильная передача (02.08.2020) WEBRip [H.264/1080-LQ]

Телекомпания: НТВ
Жанр: Автопередача

Ведущий: Алексей Куличков

Описание:
    00:59 Займ под залог ПТС: как недобросовестные компании обманывают клиентов, оставляя их без автомобиля и без денежных средств?
    09:36 Керамическое покрытие: как добиться "эффекта зеркала" на кузове автомобиля?
    13:35 Закон не писан: почему среди велосипедистов так много нарушителей? Что им грозит за нарушение правил дорожного движения?
    16:09 Пьяные лихачи за рулем: разбор смертельной аварии с участием водителя в состоянии алкогольного опьянения.
    20:34 Без угроз и прессинга: кто и как ставит автовладельцев "на счетчик" по европротоколу?
Релиз от: Катюша
Продолжительность: 00:26:09
Качество видео: WEBRip

Видео: AVC/H.264, 1920x1080, 4211 Kbps
Аудио: AAC, 2 ch, 128 Kbps

Общее
Уникальный идентификатор : 295661908549718407211803295379645269260 (0xDE6E698D16215284C545B8C04744050C)
Полное имя :Первая передача эффект зеркала на кузове автомобиля, мошеннические схемы с.mkv
Формат : Matroska
Версия формата : Version 4
Размер файла : 812 Мбайт
Продолжительность : 26 м. 9 с.
Общий поток : 4341 Кбит/сек
Дата кодирования : UTC 2020-08-02 13:54:36
Программа кодирования : mkvmerge v48.0.0 ('Fortress Around Your Heart') 64-bit
Библиотека кодирования : libebml v1.4.0 + libmatroska v1.6.0

Видео
Идентификатор : 1
Формат : AVC
Формат/Информация : Advanced Video Codec
Профиль формата : High@L4
Настройки формата : CABAC / 3 Ref Frames
Параметр CABAC формата : Да
Параметр RefFrames формата : 3 кадра
Идентификатор кодека : V_MPEG4/ISO/AVC
Продолжительность : 26 м. 9 с.
Битрейт : 4211 Кбит/сек
Ширина : 1920 пикселей
Высота : 1080 пикселей
Соотношение сторон : 16:9
Режим частоты кадров : Постоянный
Частота кадров : 25,000 кадров/сек
Цветовое пространство : YUV
Субдискретизация насыщенности : 4:2:0
Битовая глубина : 8 бит
Тип развёртки : Прогрессивная
Бит/(Пиксели*Кадры) : 0.081
Размер потока : 788 Мбайт (97%)
Default : Да
Forced : Нет
Цветовой диапазон : Limited
Основные цвета : BT.709
Характеристики трансфера : BT.709
Коэффициенты матрицы : BT.709

Аудио
Идентификатор : 2
Формат : AAC LC
Формат/Информация : Advanced Audio Codec Low Complexity
Идентификатор кодека : A_AAC-2
Продолжительность : 26 м. 9 с.
Битрейт : 128 Кбит/сек
Каналы : 2 канала
ChannelLayout : L R
Частота : 44,1 КГц
Частота кадров : 43,066 кадра/сек (1024 SPF)
Метод сжатия : С потерями
Размер потока : 24,0 Мбайт (3%)
Язык : English
Default : Да
Forced : Нет

Скриншоты:



Все одноименные релизы в Клубе
Время раздачи: 24/7. До первых 5 скачавших.
[NNMClub.to]_Pervaya peredacha yeffekt zerkala na kuzove avtomobilya, moshennicheskie shemyi s.mkv.torrent
 Торрент:   Зарегистрирован
 
Зарегистрируйтесь и скачайте торрент!
16,3 KB
Free Leech
Примагнититься
 Зарегистрирован:   02 Авг 2020 17:01:58
 Размер:   812 MB  (
 Рейтинг:    (Голосов: 8)
 Поблагодарили:   27
 Проверка:   Оформление проверено модератором 02 Авг 2020 17:06:01
Как cкачать  ·  Как раздать  ·  Правильно оформить  ·  Поднять ратио!  

_________________
Мальчики, у кого НДФЛ 15% - пишите!
Показать сообщения:   
Начать новую тему   Ответить на тему    Торрент-трекер NNM-Club -> Документалистика и Телепередачи -> За рулем Часовой пояс: GMT + 3
Страница 1 из 1