Классический форум-трекер
canvas not supported
Нас вместе: 4 142 535

Jean Michel Jarre - Live in Monaco (2011) SATRip


 
 
RSS
Начать новую тему   Ответить на тему    Торрент-трекер NNM-Club -> Театр и Музыкальное видео -> Концерты (SD)
Автор Сообщение
klimych ®
Стаж: 13 лет
Сообщений: 60
Ratio: 6.991
Поблагодарили: 353
100%
Jean Michel Jarre - Live in Monaco (2011) SATRip
Год выпуска: 2011
Жанр: Концерт, Electronic

Описание фильма:
Бесплатный концерт Жана Мишель Жара в порту Монако в честь свадьбы князя Альберта и Шарлин.

Треклист:
01 Countdown
02 Chronologie 1
03 Oxygene 2
04 Magnetic Fields 1
05 Equinoxe 5
06 Rendez-vous 3 (Laser Harp)
07 Magnetic Fields 2
08 Souvenir Of China
09 Oxygene 4
10 Oxygene 5
11 Variation 3
12 Theremin Piece
13 Equinoxe 4
14 Industrial Revolution 3
15 Rendez-vous 2
16 Vintage
17 Chronologie 2
18 Wedding March
19 Chronologie 4
20 Calypso 3 (Fin de Siecle)
21 Rendez-vous 4
22 Vintage (Encore)
Продолжительность: 02:36:24
Видеодорожка от потока Euronews и звуковая дорожка от потока Ustream.tv
плюс некоторые недостающие видео части, которые не были переданы на Евроновостях.
Взято с другого трекера.
Видео: MPEG-PS, 6150 kbps, 720х576
Аудио: МР2 2.0, 320 kbps
Код:

     Полное имя                               : K:\UpRG-Концерты\Jean Michel Jarre - Live in Monaco 2011.mpg
Формат                                   : MPEG-PS
Размер файла                             : 7,21 Гбайт
Продолжительность                        : 2 ч. 36 м.
Режим общего битрейта                    : Переменный
Общий поток                              : 6601 Кбит/сек

Видео
Идентификатор                            : 224 (0xE0)
Формат                                   : MPEG Video
Версия формата                           : Version 2
Профиль формата                          : Main@Main
Параметр BVOP формата                    : Да
Параметр матрицы формата                 : По умолчанию
Параметр GOP формата                     : M=3, N=12
Продолжительность                        : 2 ч. 36 м.
Вид битрейта                             : Переменный
Битрейт                                  : 6150 Кбит/сек
Максимальный битрейт                     : 8000 Кбит/сек
Ширина                                   : 720 пикселей
Высота                                   : 576 пикселей
Соотношение сторон                       : 16:9
Частота кадров                           : 25,000 кадров/сек
Стандарт вещания                         : PAL
Цветовое пространство                    : YUV
Субдискретизация насыщенности            : 4:2:0
Битовая глубина                          : 8 бит
Тип развёртки                            : Чересстрочная
Порядок развёртки                        : Верхнее поле первое
Метод сжатия                             : С потерями
Бит/(Пиксели*Кадры)                      : 0.593
Размер потока                            : 6,72 Гбайт (93%)
Основные цвета                           : BT.601 PAL
Характеристики трансфера                 : BT.470 System B, BT.470 System G
Коэффициенты матрицы                     : BT.601

Аудио
Идентификатор                            : 192 (0xC0)
Формат                                   : MPEG Audio
Версия формата                           : Version 1
Профиль формата                          : Layer 2
Продолжительность                        : 2 ч. 36 м.
Вид битрейта                             : Постоянный
Битрейт                                  : 320 Кбит/сек
Каналы                                   : 2 канала
Частота                                  : 48,0 КГц
Метод сжатия                             : С потерями
Размер потока                            : 358 Мбайт (5%)
           
Скриншоты:


Реставрация sklad600
[NNM-Club.ru]_Jean Michel Jarre - Live in Monaco 2011.mpg.torrent
 Торрент: Платиновая раздача  Зарегистрирован
 
Скачать


 Зарегистрирован:   29 Сен 2011 21:50:45
 Размер:   7.21 GB  (
 Рейтинг:   4.9 (Голосов: 27)
 Поблагодарили:   108
 Проверка:   Оформление проверено модератором 04 Окт 2011 04:06:15
Как cкачать  ·  Как раздать  ·  Правильно оформить  ·  Поднять ратио!  
pov_faeton
Стаж: 11 лет 4 мес.
Сообщений: 35
Ratio: 6
Поблагодарили: 136
13.57%
Откуда: СССР
russia.gif
Вот-бы найти достойное качество этого концерта ... :смущение: :смущение:

_________________

Винды - отстой для дурака,
А если не пуста башка,
Нужна командная строка !
Плесни пивка!
kubobix
Стаж: 9 лет 3 мес.
Сообщений: 142
Ratio: 76.734
100%
ukraine.gif
Смотрел он-лайн по Евроновостям. Жена проспала. Теперь пусть посмотрит...
llavaa
Стаж: 9 лет 10 мес.
Сообщений: 15
Ratio: 4.83
0%
Сколько ж на салют денег то угрохали!!! Почти в каждой композиции...
А вообще,конечно,хотелось бы уже что-то новое от Жара услышать.
Sas43
Стаж: 9 лет 9 мес.
Сообщений: 82
Ratio: 19.649
100%
russia.gif
Спасибо!
replickator
Стаж: 9 лет 10 мес.
Сообщений: 9
Ratio: 2.429
51.72%
Откуда: Хабаровск
russia.gif
klimych
Добрый день! Встаньте, пожалуйста на раздачу.
cyclone-53
Стаж: 5 лет 10 мес.
Сообщений: 490
Ratio: 20.673
Раздал: 6.699 TB
1.52%
replickator
Открой тут *похожие темы*, и там первой же раздачей чуть укороченная версия, но с сидерами, и качество видео выше. Но звук одинаково никакой.
Показать сообщения:   
Начать новую тему   Ответить на тему    Торрент-трекер NNM-Club -> Театр и Музыкальное видео -> Концерты (SD) Часовой пояс: GMT + 3
Страница 1 из 1