Классический форум-трекер
canvas not supported
Нас вместе: 4 079 425

The Flirts - Greatest Hits (1993) [FLAC|Lossless]<Dance, Hi-NRG>


 
 
RSS
Начать новую тему   Ответить на тему    Торрент-трекер NNM-Club -> Pop -> Disco, Italo-Disco, Euro-Disco, Hi-NRG (Lossless)
Автор Сообщение
val64 ®
Стаж: 10 лет 2 мес.
Сообщений: 71
Ratio: 21,299
Поблагодарили: 1259
99.02%
russia.gif
The Flirts - Greatest Hits (1993)
Год: 1993
Жанр: Dance, Hi-NRG
Продолжительность: 01:16:52

Кодек: FLAC
Битрейт: Lossless
Тип раздачи: image+.cue

Треклист:
01. Passion (9:11)
02. Danger (6:13)
03. Helpless (You Took My Love) (7:46)
04. Calling All Boys (7:57)
05. You and Me (6:04)
06. New Toy (6:14)
07. Jukebox (Don't Put Another Dime) (12' Remix) (5:28)
08. We Just Want to Dance (2:45)
09. Telephone (Pick Up The) (3:15)
10. Boy Crazy (3:13)
11. Oriental Boy (4:57)
12. Love Reaction (2:44)
13. Temptation (4:18)
14. Miss You (6:48)
Код:
Exact Audio Copy V0.99 prebeta 5 from 4. May 2009

Отчёт EAC об извлечении, выполненном 24. декабря 2009, 11:07

The Flirts / Greatest Hits

Дисковод: HL-DT-STDVDRAM GSA-H10N   Adapter: 0  ID: 0

Режим чтения                 : Достоверность
Использование точного потока : Да
Отключение кэша аудио        : Да
Использование указателей C2  : Нет

Коррекция смещения при чтении                     : 667
Способность читать области Lead-in и Lead-out     : Нет
Заполнение пропущенных сэмплов тишиной            : Да
Удаление блоков с тишиной в начале и конце        : Нет
При вычислениях CRC использовались нулевые сэмплы : Да
Интерфейс                                         : Встроенный Win32-интерфейс для Win NT/2000

Выходной формат : Внутренние WAV-операции
Формат сэмплов  : 44.100 Гц; 16 бит; стерео

TOC извлечённого CD

     Трек |   Старт  | Длительность | Начальный сектор | Конечный сектор
    ---------------------------------------------------------------------
       1  |  0:00.00 |    9:11.07   |           0      |      41331
       2  |  9:11.07 |    6:12.55   |       41332      |      69286
       3  | 15:23.62 |    7:46.00   |       69287      |     104236
       4  | 23:09.62 |    7:57.18   |      104237      |     140029
       5  | 31:07.05 |    6:04.15   |      140030      |     167344
       6  | 37:11.20 |    6:13.70   |      167345      |     195389
       7  | 43:25.15 |    5:27.60   |      195390      |     219974
       8  | 48:53.00 |    2:44.55   |      219975      |     232329
       9  | 51:37.55 |    3:15.02   |      232330      |     246956
      10  | 54:52.57 |    3:13.00   |      246957      |     261431
      11  | 58:05.57 |    4:56.53   |      261432      |     283684
      12  | 63:02.35 |    2:44.05   |      283685      |     295989
      13  | 65:46.40 |    4:17.45   |      295990      |     315309
      14  | 70:04.10 |    6:48.07   |      315310      |     345916

Характеристики диапазона извлечения и сообщения об ошибках

Выбранный диапазон

     Имя файла I:\the flirts\The Flirts - Greatest Hits.wav

     Пиковый уровень 99.9 %
     Качество диапазона 100.0 %
     CRC копии C0C1B0EC
     Копирование... OK

Ошибок не произошло

AccurateRip: сводка

Трек  1  точность не определена (достоверность 3)  [EF2E2354], AccurateRip вернул [A7D98E2C]
Трек  2  точность не определена (достоверность 3)  [74D2626A], AccurateRip вернул [9164876A]
Трек  3  точность не определена (достоверность 3)  [CC12E86A], AccurateRip вернул [E7061A3A]
Трек  4  точность не определена (достоверность 3)  [D70797AC], AccurateRip вернул [51CF6CE4]
Трек  5  точность не определена (достоверность 3)  [95632B5B], AccurateRip вернул [EC6A598B]
Трек  6  точность не определена (достоверность 3)  [CA49A32E], AccurateRip вернул [6E7F9DCE]
Трек  7  точность не определена (достоверность 3)  [76180E57], AccurateRip вернул [6B3E56FF]
Трек  8  точность не определена (достоверность 3)  [D4EB32E7], AccurateRip вернул [B939F21F]
Трек  9  точность не определена (достоверность 3)  [C1F5E2BB], AccurateRip вернул [E5AABE23]
Трек 10  точность не определена (достоверность 3)  [164BB2BA], AccurateRip вернул [343475DA]
Трек 11  точность не определена (достоверность 3)  [4560CCA9], AccurateRip вернул [358E84D9]
Трек 12  точность не определена (достоверность 3)  [A7954E43], AccurateRip вернул [D89892BB]
Трек 13  точность не определена (достоверность 3)  [7EDA7791], AccurateRip вернул [8F1BBDC9]
Трек 14  точность не определена (достоверность 3)  [F5B7727C], AccurateRip вернул [A54654F4]

Ни один трек не прошёл проверки на точность
В вашей базе может быть иной вариант штамповки диска

Конец отчёта
Код:
-----------------------

DON'T MODIFY THIS FILE

-----------------------

PERFORMER: auCDtect Task Manager, ver. 1.6.0 RC1 build 1.6.0.1
Copyright (c) 2008-2010 y-soft. All rights reserved
http://y-soft.org

ANALYZER: auCDtect: CD records authenticity detector, version 0.8.2
Copyright (c) 2004 Oleg Berngardt. All rights reserved.
Copyright (c) 2004 Alexander Djourik. All rights reserved.

FILE: The Flirts - Greatest Hits.flac
  Size: 534357124 Hash: 737E8539B886CD1F6E6EAFBA289970C1 Accuracy: -m0
  Conclusion: CDDA 100%
  Signature: 1229D6139C93C2A7A13B2C9B757DB1B2FA9F9E69
Код:
REM GENRE Pop
REM DISCID E812040E
REM COMMENT "ExactAudioCopy v0.99pb5"
PERFORMER "The Flirts"
TITLE "Greatest Hits"
FILE "The Flirts - Greatest Hits.wav" WAVE
  TRACK 01 AUDIO
    TITLE "Passion"
    PERFORMER "The Flirts"
    INDEX 01 00:00:00
  TRACK 02 AUDIO
    TITLE "Danger"
    PERFORMER "The Flirts"
    INDEX 00 09:09:35
    INDEX 01 09:11:07
  TRACK 03 AUDIO
    TITLE "Helpless (You Took My Love)"
    PERFORMER "The Flirts"
    INDEX 00 15:21:70
    INDEX 01 15:23:62
  TRACK 04 AUDIO
    TITLE "Calling All Boys"
    PERFORMER "The Flirts"
    INDEX 00 23:08:40
    INDEX 01 23:09:62
  TRACK 05 AUDIO
    TITLE "You and Me"
    PERFORMER "The Flirts"
    INDEX 01 31:07:05
  TRACK 06 AUDIO
    TITLE "New Toy"
    PERFORMER "The Flirts"
    INDEX 01 37:11:20
  TRACK 07 AUDIO
    TITLE "Jukebox (Don't Put Another Dime) [12' Remix]"
    PERFORMER "The Flirts"
    INDEX 00 43:23:62
    INDEX 01 43:25:15
  TRACK 08 AUDIO
    TITLE "We Just Want to Dance"
    PERFORMER "The Flirts"
    INDEX 00 48:51:72
    INDEX 01 48:53:00
  TRACK 09 AUDIO
    TITLE "Telephone (Pick Up The)"
    PERFORMER "The Flirts"
    INDEX 00 51:35:42
    INDEX 01 51:37:55
  TRACK 10 AUDIO
    TITLE "Boy Crazy"
    PERFORMER "The Flirts"
    INDEX 00 54:50:32
    INDEX 01 54:52:57
  TRACK 11 AUDIO
    TITLE "Oriental Boy"
    PERFORMER "The Flirts"
    INDEX 00 58:03:32
    INDEX 01 58:05:57
  TRACK 12 AUDIO
    TITLE " Love Reaction"
    PERFORMER "The Flirts"
    INDEX 00 63:00:45
    INDEX 01 63:02:35
  TRACK 13 AUDIO
    TITLE "Temptation"
    PERFORMER "The Flirts"
    INDEX 00 65:44:15
    INDEX 01 65:46:40
  TRACK 14 AUDIO
    TITLE "Miss You"
    PERFORMER "The Flirts"
    INDEX 00 70:02:35
    INDEX 01 70:04:10

Rip сделан с CD за 100р. Обложка есть только лицевая, взятая из инета, т.к. родная несоответствовала заявленному.
Время раздачи: 24/7


Поглощение/вытеснение
Только с согласия релизера

DesideriuM

Реставрация релиза: DesideriuM
[NNM-Club.ru]_The Flirts.torrent
 Торрент: Платиновая раздача  Зарегистрирован
 
Скачать


 Зарегистрирован:   24 Дек 2009 13:01:07
 Размер:   510 MB  (
 Рейтинг:   4,8 (Голосов: 36)
 Поблагодарили:   94
 Проверка:   Оформление проверено модератором 24 Дек 2009 17:52:35
Как cкачать  ·  Как раздать  ·  Правильно оформить  ·  Поднять ратио!  
Показать сообщения:   
Начать новую тему   Ответить на тему    Торрент-трекер NNM-Club -> Pop -> Disco, Italo-Disco, Euro-Disco, Hi-NRG (Lossless) Часовой пояс: GMT + 3
Страница 1 из 1