Классический форум-трекер
canvas not supported
Нас вместе: 4 078 888

A La Carte - ... Very Best Of '99 (1999) [FLAC|Lossless]<Disco>


 
 
RSS
Начать новую тему   Ответить на тему    Торрент-трекер NNM-Club -> Pop -> Disco, Italo-Disco, Euro-Disco, Hi-NRG (Lossless)
Автор Сообщение
val64 ®
Стаж: 10 лет 2 мес.
Сообщений: 71
Ratio: 21,299
Поблагодарили: 1258
99.02%
russia.gif
A La Carte - ... Very Best Of '99 (1999)
Год: 1999
Жанр: Disco
Страна: Германия
Продолжительность: 00:59:14

Кодек: FLAC
Битрейт: Lossless

Треклист:
01. Do Wah Diddy Diddy '99
02. River Blue
03. Doctor Doctor (Help Me Please) '99
04. In the Summer Sun of Gree
05. When the Boys Come Home '99
06. Ring Me Honey '99
07. Red Indian Drums
08. Viva Torero
09. You Get Me on the Run '99
10. Dong Dong Diki Diki Dong '99
11. Cubatao
12. Ahe Tamoure '99
13. Jimmy Gimme Reggae
14. Wanted (Jean le Voleur)
15. The Hit Mix
Описание:
A La Carte — диско-группа образованная в 1978 году супружеской парой Тони Хендрика и Карин Хартман. В 1983 году группа распалась. В 1989 году известным в Европе ди-джеем Минго Джерри была предпринята попытка реанимации A La Carte. Были найдены 3 молоденькие девушки, записавшие сингл “Dancing In The Summertime” («Танцующий летом») и альбом “Sun Sun Summertime” («Солнце, солнце, летняя пора»), представляющий собой сборник наиболее популярных хитов середины и конца 80-х в режиме нон стоп. Попытка вероятно оказалась неудачной, поскольку после выхода этого альбома группа исчезла с музыкального олимпа...
Через 10 лет, в 1999 году на фоне всплеска интереса к диско музыке начала 80-х, возвращения на сцену бывших популярных певцов(певиц) и воссоединения старых забытых диско групп, концерн Hansa International выпускает новый альбом A La Carte “The Very Best” в котором, следуя моде, помещены забытые хиты группы в современной обработке, ещё раз напомнив миру, что когда-то эта музыка была
очень и очень популярной...
Код:

Exact Audio Copy V0.99 prebeta 5 from 4. May 2009

Отчёт EAC об извлечении, выполненном 24. декабря 2009, 22:57

A La Carte /  A La Carte Very Best Of '99

Дисковод: HL-DT-STDVDRAM GSA-H10N   Adapter: 0  ID: 0

Режим чтения                 : Достоверность
Использование точного потока : Да
Отключение кэша аудио        : Да
Использование указателей C2  : Нет

Коррекция смещения при чтении                     : 667
Способность читать области Lead-in и Lead-out     : Нет
Заполнение пропущенных сэмплов тишиной            : Да
Удаление блоков с тишиной в начале и конце        : Нет
При вычислениях CRC использовались нулевые сэмплы : Да
Интерфейс                                         : Встроенный Win32-интерфейс для Win NT/2000

Выходной формат : Внутренние WAV-операции
Формат сэмплов  : 44.100 Гц; 16 бит; стерео

TOC извлечённого CD

     Трек |   Старт  | Длительность | Начальный сектор | Конечный сектор
    ---------------------------------------------------------------------
       1  |  0:00.00 |    3:29.50   |           0      |      15724
       2  |  3:29.50 |    4:57.50   |       15725      |      38049
       3  |  8:27.25 |    4:34.00   |       38050      |      58599
       4  | 13:01.25 |    3:20.43   |       58600      |      73642
       5  | 16:21.68 |    2:57.07   |       73643      |      86924
       6  | 19:19.00 |    3:55.65   |       86925      |     104614
       7  | 23:14.65 |    3:58.60   |      104615      |     122524
       8  | 27:13.50 |    3:56.13   |      122525      |     140237
       9  | 31:09.63 |    3:12.55   |      140238      |     154692
      10  | 34:22.43 |    3:00.37   |      154693      |     168229
      11  | 37:23.05 |    3:46.20   |      168230      |     185199
      12  | 41:09.25 |    3:19.50   |      185200      |     200174
      13  | 44:29.00 |    3:01.70   |      200175      |     213819
      14  | 47:30.70 |    3:46.05   |      213820      |     230774
      15  | 51:17.00 |    7:36.00   |      230775      |     264974

Характеристики диапазона извлечения и сообщения об ошибках

Выбранный диапазон

     Имя файла I:\RRRRRRRR\A La Carte -  A La Carte Very Best Of '99.wav

     Пиковый уровень 99.8 %
     Качество диапазона 100.0 %
     CRC копии 15B17ED8
     Копирование... OK

Ошибок не произошло

AccurateRip: сводка

Трек  1  нет в базе данных
Трек  2  нет в базе данных
Трек  3  нет в базе данных
Трек  4  нет в базе данных
Трек  5  нет в базе данных
Трек  6  нет в базе данных
Трек  7  нет в базе данных
Трек  8  нет в базе данных
Трек  9  нет в базе данных
Трек 10  нет в базе данных
Трек 11  нет в базе данных
Трек 12  нет в базе данных
Трек 13  нет в базе данных
Трек 14  нет в базе данных
Трек 15  нет в базе данных

Ни одного трека нет в базе AccurateRip

Конец отчёта
Код:

AUDIOCHECKER v2.0 beta (build 457) - by Dester - opdester@freemail.hu
~~~~~~~~~~~~~~~~~~~~~~~~~~~~~~~~~~

Started at: пятница, 25. 12. 2009. - 14:14.39
1 file found

1 -===- I:\RRRRRRRR\A La Carte -  A La Carte Very Best Of '99.flac
  Extracted successfully
  Conclusion: this track is CDDA with probability 100%
  Tempfile successfully deleted.

Finished at: пятница, 25. 12. 2009. - 14:24.07 (operation time: 0:09.28)
Время раздачи: 24/7 - круглосуточно


Поглощение/вытеснение
Только с согласия релизера

DesideriuM

Реставрация релиза: DesideriuM
[NNM-Club.ru]_A La Carte.torrent
 Торрент: Платиновая раздача  Зарегистрирован
 
Скачать


 Зарегистрирован:   25 Дек 2009 15:16:55
 Размер:   412 MB  (
 Рейтинг:   4,8 (Голосов: 23)
 Поблагодарили:   57
 Проверка:   Оформление проверено модератором 25 Дек 2009 16:15:57
Как cкачать  ·  Как раздать  ·  Правильно оформить  ·  Поднять ратио!  
Загрузка...
Bacha
Стаж: 10 лет
Сообщений: 1533
Ratio: 129,865
Поблагодарили: 2505
100%
Откуда: СССР
nnm-club.gif
Спасибо!Хорошие воспоминания при прослушивании.
Ruwasa
Стаж: 10 лет 1 мес.
Сообщений: 14
Ratio: 73,169
100%
russia.gif
Большое спасибо!
Показать сообщения:   
Начать новую тему   Ответить на тему    Торрент-трекер NNM-Club -> Pop -> Disco, Italo-Disco, Euro-Disco, Hi-NRG (Lossless) Часовой пояс: GMT + 3
Страница 1 из 1