Классический форум-трекер
canvas not supported
Нас вместе: 4 078 958

Saragossa Band (1980-2001) - 9 albums [FLAC/APE|Lossless] <Disco, 80s>


 
 
RSS
Начать новую тему   Ответить на тему    Торрент-трекер NNM-Club -> Pop -> Disco, Italo-Disco, Euro-Disco, Hi-NRG (Lossless)
Автор Сообщение
Fall Into The Sky ®
Стаж: 10 лет 5 мес.
Сообщений: 8074
Ratio: 42,457
Раздал: 18,62 TB
Поблагодарили: 30830
100%
Saragossa Band (1980-2001) - 9 albums
ImageГод: 1980-2001
Жанр: Disco, 80s
Продолжительность: 08:05:04

Кодек: FLAC/APE (Images)
Битрейт: Lossless

Информация:
Музыкальная карьера коллектива Saragossa Band началась в 1977 году. Благодоря сотрудничеству с продюсером Anthony Monn, который известен по работе с такими знаменитостями, как Amanda Lear, Fancy, Al Bano и Romina Power, группа Saragossa Band устроила «настоящий дождь хитов», обрушившийся на поклонников их таланта. Любой маломальский знаток диско помнит эти хиты: «Big Bamboo», «Disco Boogie Boogie», «Malaika», «Rasta Man» и «Zabadak». В своих произведениях Saragossa Band превосходно переплетает стилистические нити музыкальных жанров, соединяя, казалось бы, несоединимые вещи - рок и диско. Это было и остается их основной отличительной чертой.

Альбомы:
Image
Продолжительность: 00:36:14
Кодек: FLAC

Треклист:
[03:56] 01. Pas pleurer (Please No More Crying)
[03:48] 02. Ginger Red
[03:48] 03. Slow Me Down
[03:44] 04. Mash
[03:26] 05. Out Of Control
[04:31] 06. Roof On My Head
[04:24] 07. Santiago
[04:17] 08. Surabaya
[04:16] 09. Edens Door

Отчет EAC: отсутствует
AUDIOCHECKER v2.0 beta (build 457) - by Dester - opdester@freemail.hu
~~~~~~~~~~~~~~~~~~~~~~~~~~~~~~~~~~
-=== НЕ РЕДАКТИРУЙТЕ ЭТОТ ФАЙЛ! ===-

Путь: ...\1980 - Matchless

1 -=- Saragossa Band - Matchless.flac -=- CDDA (100%)

156950644
Image
Продолжительность: 01:29:14
Кодек: FLAC

Треклист:
CD1: (00:43:10)
[00:26] 01. Dance With The Saragossa Band (Big Bamboo)
[06:11] 02. Dance With The Saragossa Band Part I
[00:15] 03. Dance With The Saragossa Band (Big Bamboo)
[04:10] 04. Dance With The Saragossa Band Part II
[04:48] 05. Dance With The Saragossa Band Part III
[00:52] 06. Shame And Scandal In The Family
[00:30] 07. Hands Up
[00:42] 08. Paloma Blanca
[00:41] 09. Black Is Black
[00:44] 10. Land Of Thousand Dances
[00:45] 11. Zabadak
[00:43] 12. Hold Tight
[01:31] 13. Sun Of Jamaica
[00:23] 14. Dance With The Saragossa Band (Big Bamboo)
[07:37] 15. Dance With The Saragossa Band Part IV
[01:18] 16. Hang On Sloopy
[00:25] 17. Mademoiselle Ninette
[01:11] 18. Baby Come Back
[00:53] 19. Skinny Minny
[00:59] 20. A Banda
[00:38] 21. Volare
[00:33] 22. Tanze Samba Mit Mir (Do It, Do It Again)
[00:47] 23. Brasil
[00:30] 24. Hey Amigo Charly Brown
[04:23] 25. Dance With The Saragossa Band Part V
[01:04] 26. Dance Little Bird
CD2: (00:46:04)
[00:36] 01. Zabadak
[06:57] 02. Dance With The Saragossa Band Part VI
[00:15] 03. Alf's Rap Clap
[04:44] 04. Dance With The Saragossa Band Part VII
[01:09] 05. Funky Broadway
[00:54] 06. Sweet Soul Music
[01:09] 07. Funky Street
[00:53] 08. Staggar-Lee
[01:07] 09. What'd I Say
[00:16] 10. Dance With The Saragossa Band (Big Bamboo)
[00:43] 11. Born To Be Alive
[01:02] 12. Loop Di Love
[00:55] 13. Azzurro
[00:28] 14. Massachusetts
[00:30] 15. The Letter
[00:30] 16. You Can Get It If You Really Want
[00:29] 17. Monday Monday
[01:03] 18. Happy Birthday
[00:14] 19. Zabadak
[05:14] 20. Dance With The Saragossa Band Part VIII
[05:12] 21. Dance With The Saragossa Band Part IX
[04:34] 22. Dance With The Saragossa Band Part X
[00:53] 23. Loule, Loule
[04:10] 24. Dance With The Saragossa Band Part XI
[00:38] 25. Marmor, Stein Und Eisen Bricht
[01:14] 26. American Pie

Exact Audio Copy V0.99 prebeta 4 from 23. January 2008

Отчёт EAC об извлечении, выполненном 18. января 2009, 19:40

Saragossa Band / Das Totale - ZaZaZabadak (CD1)

Дисковод: TEAC DV-W520GM Adapter: 4 ID: 2

Режим чтения : Достоверность
Использование точного потока : Да
Отключение кэша аудио : Да
Использование указателей C2 : Нет

Коррекция смещения при чтении : 6
Способность читать области Lead-in и Lead-out : Нет
Заполнение пропущенных сэмплов тишиной : Да
Удаление блоков с тишиной в начале и конце : Нет
При вычислениях CRC использовались нулевые сэмплы : Да
Интерфейс : Установленный внешний ASPI-интерфейс

Выходной формат : Внутренние WAV-операции
Формат сэмплов : 44.100 Гц; 16 бит; стерео

TOC извлечённого CD

Трек | Старт | Длительность | Начальный сектор | Конечный сектор
---------------------------------------------------------------------
1 | 0:00.33 | 0:26.42 | 33 | 2024
2 | 0:27.00 | 6:11.73 | 2025 | 29922
3 | 6:38.73 | 0:15.02 | 29923 | 31049
4 | 6:54.00 | 4:10.53 | 31050 | 49852
5 | 11:04.53 | 4:48.07 | 49853 | 71459
6 | 15:52.60 | 0:52.43 | 71460 | 75402
7 | 16:45.28 | 0:31.00 | 75403 | 77727
8 | 17:16.28 | 0:42.20 | 77728 | 80897
9 | 17:58.48 | 0:41.22 | 80898 | 83994
10 | 18:39.70 | 0:44.70 | 83995 | 87364
11 | 19:24.65 | 0:45.13 | 87365 | 90752
12 | 20:10.03 | 0:43.00 | 90753 | 93977
13 | 20:53.03 | 1:33.15 | 93978 | 100967
14 | 22:26.18 | 0:23.05 | 100968 | 102697
15 | 22:49.23 | 7:37.62 | 102698 | 137034
16 | 30:27.10 | 1:18.63 | 137035 | 142947
17 | 31:45.73 | 0:25.00 | 142948 | 144822
18 | 32:10.73 | 1:11.10 | 144823 | 150157
19 | 33:22.08 | 0:53.62 | 150158 | 154194
20 | 34:15.70 | 0:59.25 | 154195 | 158644
21 | 35:15.20 | 0:38.58 | 158645 | 161552
22 | 35:54.03 | 0:33.35 | 161553 | 164062
23 | 36:27.38 | 0:47.50 | 164063 | 167637
24 | 37:15.13 | 0:30.15 | 167638 | 169902
25 | 37:45.28 | 4:23.00 | 169903 | 189627
26 | 42:08.28 | 1:04.05 | 189628 | 194432

Характеристики диапазона извлечения и сообщения об ошибках

Выбранный диапазон

Имя файла F:\RELEASE\My RELEASES\Saragossa Band - Das Totale - ZaZaZabadak (CD1)\Saragossa Band - Das Totale - ZaZaZabadak (CD1).wav

Пиковый уровень 99.0 %
Качество диапазона 99.9 %
CRC теста 9C67614C
CRC копии 9C67614C
Копирование... OK

Ошибок не произошло

AccurateRip: сводка

Трек 1 точность не определена (достоверность 2) [DD4B5D89], AccurateRip вернул [175C8CCC]
Трек 2 точность не определена (достоверность 2) [185A64FF], AccurateRip вернул [E573B724]
Трек 3 точность не определена (достоверность 2) [9D3B7294], AccurateRip вернул [D22E8C15]
Трек 4 точность не определена (достоверность 2) [C9DCDF99], AccurateRip вернул [33899788]
Трек 5 точность не определена (достоверность 2) [2DE8C6D8], AccurateRip вернул [BE965FBB]
Трек 6 точность не определена (достоверность 2) [C3D05AE5], AccurateRip вернул [A6E5F70A]
Трек 7 точность не определена (достоверность 2) [7317D873], AccurateRip вернул [EFE3FA7F]
Трек 8 точность не определена (достоверность 2) [0095F410], AccurateRip вернул [79F312D2]
Трек 9 точность не определена (достоверность 2) [D54A957B], AccurateRip вернул [9CB3996B]
Трек 10 точность не определена (достоверность 2) [DDE44EAA], AccurateRip вернул [70D4910D]
Трек 11 точность не определена (достоверность 2) [3D1D81B6], AccurateRip вернул [87769C69]
Трек 12 точность не определена (достоверность 2) [5C1B03CA], AccurateRip вернул [3B3CC251]
Трек 13 точность не определена (достоверность 2) [B33CC54F], AccurateRip вернул [C2250A50]
Трек 14 точность не определена (достоверность 2) [CEED880D], AccurateRip вернул [3965A977]
Трек 15 точность не определена (достоверность 2) [6BB18C19], AccurateRip вернул [7FB06237]
Трек 16 точность не определена (достоверность 2) [A1D4C516], AccurateRip вернул [F5D210BF]
Трек 17 точность не определена (достоверность 2) [8CD3D82E], AccurateRip вернул [5E6D6306]
Трек 18 точность не определена (достоверность 2) [5DB9D534], AccurateRip вернул [0F14C21E]
Трек 19 точность не определена (достоверность 2) [4F65658B], AccurateRip вернул [ADF20FE0]
Трек 20 точность не определена (достоверность 2) [0ED29A13], AccurateRip вернул [F3284BA3]
Трек 21 точность не определена (достоверность 2) [8326843F], AccurateRip вернул [3F4418F9]
Трек 22 точность не определена (достоверность 2) [D1A9DD65], AccurateRip вернул [67BFD3FD]
Трек 23 точность не определена (достоверность 2) [78824E6F], AccurateRip вернул [307E3210]
Трек 24 точность не определена (достоверность 2) [3DE2E53C], AccurateRip вернул [38B0ED3B]
Трек 25 точность не определена (достоверность 2) [F0F33EE8], AccurateRip вернул [590FEC59]
Трек 26 точность не определена (достоверность 2) [CB06D412], AccurateRip вернул [28679397]

Ни один трек не прошёл проверки на точность
В вашей базе может быть иной вариант штамповки диска

Конец отчёта
AUDIOCHECKER v2.0 beta (build 457) - by Dester - opdester@freemail.hu
~~~~~~~~~~~~~~~~~~~~~~~~~~~~~~~~~~
-=== НЕ РЕДАКТИРУЙТЕ ЭТОТ ФАЙЛ! ===-

Путь: ...\CD1

01 -=- Saragossa Band - Das Totale - ZaZaZabadak (CD1).flac -=- CDDA (100%)

107590228
Exact Audio Copy V0.99 prebeta 4 from 23. January 2008

Отчёт EAC об извлечении, выполненном 18. января 2009, 19:26

Saragossa Band / Das Totale - ZaZaZabadak (CD2)

Дисковод: TEAC DV-W520GM Adapter: 4 ID: 2

Режим чтения : Достоверность
Использование точного потока : Да
Отключение кэша аудио : Да
Использование указателей C2 : Нет

Коррекция смещения при чтении : 6
Способность читать области Lead-in и Lead-out : Нет
Заполнение пропущенных сэмплов тишиной : Да
Удаление блоков с тишиной в начале и конце : Нет
При вычислениях CRC использовались нулевые сэмплы : Да
Интерфейс : Установленный внешний ASPI-интерфейс

Выходной формат : Внутренние WAV-операции
Формат сэмплов : 44.100 Гц; 16 бит; стерео

TOC извлечённого CD

Трек | Старт | Длительность | Начальный сектор | Конечный сектор
---------------------------------------------------------------------
1 | 0:00.33 | 0:36.57 | 33 | 2789
2 | 0:37.15 | 6:57.60 | 2790 | 34124
3 | 7:35.00 | 0:15.28 | 34125 | 35277
4 | 7:50.28 | 4:44.50 | 35278 | 56627
5 | 12:35.03 | 1:09.17 | 56628 | 61819
6 | 13:44.20 | 0:54.53 | 61820 | 65922
7 | 14:38.73 | 1:09.60 | 65923 | 71157
8 | 15:48.58 | 0:53.70 | 71158 | 75202
9 | 16:42.53 | 1:07.40 | 75203 | 80267
10 | 17:50.18 | 0:16.15 | 80268 | 81482
11 | 18:06.33 | 0:43.07 | 81483 | 84714
12 | 18:49.40 | 1:02.30 | 84715 | 89394
13 | 19:51.70 | 0:55.45 | 89395 | 93564
14 | 20:47.40 | 0:28.55 | 93565 | 95719
15 | 21:16.20 | 0:30.43 | 95720 | 98012
16 | 21:46.63 | 0:30.55 | 98013 | 100317
17 | 22:17.43 | 0:29.40 | 100318 | 102532
18 | 22:47.08 | 1:05.25 | 102533 | 107432
19 | 23:52.33 | 0:14.57 | 107433 | 108539
20 | 24:07.15 | 5:14.63 | 108540 | 132152
21 | 29:22.03 | 5:12.12 | 132153 | 155564
22 | 34:34.15 | 4:34.20 | 155565 | 176134
23 | 39:08.35 | 0:53.63 | 176135 | 180172
24 | 40:02.23 | 4:10.65 | 180173 | 198987
25 | 44:13.13 | 0:38.50 | 198988 | 201887
26 | 44:51.63 | 1:14.45 | 201888 | 207482

Характеристики диапазона извлечения и сообщения об ошибках

Выбранный диапазон

Имя файла F:\RELEASE\My RELEASES\Saragossa Band - Das Totale - ZaZaZabadak (CD2)\Saragossa Band - Das Totale - ZaZaZabadak (CD2).wav

Пиковый уровень 88.9 %
Качество диапазона 99.9 %
CRC теста B1CC91A6
CRC копии B1CC91A6
Копирование... OK

Ошибок не произошло

AccurateRip: сводка

Трек 1 точное извлечение (доверие 2) [7A0200C0]
Трек 2 точное извлечение (доверие 2) [243A42B0]
Трек 3 точное извлечение (доверие 2) [EA55C56A]
Трек 4 точное извлечение (доверие 2) [EE59EB44]
Трек 5 точное извлечение (доверие 2) [1BD03081]
Трек 6 точное извлечение (доверие 2) [109AB84D]
Трек 7 точное извлечение (доверие 2) [AD2B824C]
Трек 8 точное извлечение (доверие 2) [04487893]
Трек 9 точное извлечение (доверие 2) [38BD7FB1]
Трек 10 точное извлечение (доверие 2) [2A2F101A]
Трек 11 точное извлечение (доверие 2) [A2A005B4]
Трек 12 точное извлечение (доверие 2) [62423D16]
Трек 13 точное извлечение (доверие 2) [D51D10CD]
Трек 14 точное извлечение (доверие 2) [DDD35251]
Трек 15 точное извлечение (доверие 2) [3449A312]
Трек 16 точное извлечение (доверие 2) [3BE1E2C4]
Трек 17 точное извлечение (доверие 2) [E35F9F68]
Трек 18 точное извлечение (доверие 2) [52EDADF9]
Трек 19 точное извлечение (доверие 2) [C4ACAA9C]
Трек 20 точное извлечение (доверие 2) [B729DC46]
Трек 21 точное извлечение (доверие 2) [D73CD55F]
Трек 22 точное извлечение (доверие 2) [26DF5F18]
Трек 23 точное извлечение (доверие 2) [4D6F468C]
Трек 24 точное извлечение (доверие 2) [E265E438]
Трек 25 точное извлечение (доверие 2) [0E619719]
Трек 26 точное извлечение (доверие 2) [2F0B0F64]

Все треки извлечены точно

Конец отчёта
AUDIOCHECKER v2.0 beta (build 457) - by Dester - opdester@freemail.hu
~~~~~~~~~~~~~~~~~~~~~~~~~~~~~~~~~~
-=== НЕ РЕДАКТИРУЙТЕ ЭТОТ ФАЙЛ! ===-

Путь: ...\CD2

01 -=- Saragossa Band - Das Totale - ZaZaZabadak (CD2).flac -=- CDDA (100%)

106213972
Image
Продолжительность: 00:36:09
Кодек: APE

Треклист:
[04:38] 01. Have A Good Time
[03:29] 02. Mosguito
[03:24] 03. Take Me To The Voodoo Night
[03:56] 04. Tropical Rain
[02:46] 05. Save Me
[03:38] 06. Buona Sera (I Take My Chance Tonight)
[03:48] 07. Shadow Man
[03:21] 08. Alright, Everybody Ask For More
[03:48] 09. I Know, I Know
[03:17] 10. If I Ever Come To Heaven

Exact Audio Copy V0.99 prebeta 5 from 4. May 2009

Отчёт EAC об извлечении, выполненном 24. марта 2010, 23:32

Saragossa Band / Have A Good Time

Дисковод: _NEC DVD_RW ND-3551A Adapter: 1 ID: 1

Режим чтения : Достоверность
Использование точного потока : Да
Отключение кэша аудио : Да
Использование указателей C2 : Нет

Коррекция смещения при чтении : 48
Способность читать области Lead-in и Lead-out : Нет
Заполнение пропущенных сэмплов тишиной : Да
Удаление блоков с тишиной в начале и конце : Нет
При вычислениях CRC использовались нулевые сэмплы : Да
Интерфейс : Установленный внешний ASPI-интерфейс

Выходной формат : Внутренние WAV-операции
Формат сэмплов : 44.100 Гц; 16 бит; стерео

TOC извлечённого CD

Трек | Старт | Длительность | Начальный сектор | Конечный сектор
---------------------------------------------------------------------
1 | 0:00.33 | 4:38.32 | 33 | 20914
2 | 4:38.65 | 3:29.70 | 20915 | 36659
3 | 8:08.60 | 3:24.43 | 36660 | 52002
4 | 11:33.28 | 3:56.70 | 52003 | 69772
5 | 15:30.23 | 2:46.60 | 69773 | 82282
6 | 18:17.08 | 3:38.25 | 82283 | 98657
7 | 21:55.33 | 3:48.00 | 98658 | 115757
8 | 25:43.33 | 3:21.45 | 115758 | 130877
9 | 29:05.03 | 3:48.15 | 130878 | 147992
10 | 32:53.18 | 3:17.12 | 147993 | 162779

Характеристики диапазона извлечения и сообщения об ошибках

Выбранный диапазон

Имя файла C:\Saragossa Band - Have A Good Time.wav

Пиковый уровень 100.0 %
Качество диапазона 100.0 %
CRC теста 4C549ADD
CRC копии 4C549ADD
Копирование... OK

Ошибок не произошло

Конец отчёта
AUDIOCHECKER v2.0 beta (build 457) - by Dester - opdester@freemail.hu
~~~~~~~~~~~~~~~~~~~~~~~~~~~~~~~~~~
-=== НЕ РЕДАКТИРУЙТЕ ЭТОТ ФАЙЛ! ===-

Путь: ...\1983 - Have A Good Time

01 -=- Saragossa Band - Have A Good Time.ape -=- CDDA (100%)

104276084
Image
Продолжительность: 00:47:01
Кодек: APE

Треклист:
[00:12] 01. Saragossa Theme
[03:22] 02. Angelito De Nero
[03:02] 03. Merenque
[03:51] 04. Kalimba De Luna
[03:12] 05. Jambo Jambo
[00:10] 06. Saragossa Theme
[02:47] 07. Coco
[03:23] 08. Let's Dance
[02:21] 09. Can't Help Myself
[02:32] 10. Same Old Song
[02:53] 11. Barbados
[02:38] 12. Red Red Wine
[03:10] 13. Cupid
[03:00] 14. The Tide Is High
[03:03] 15. Do You Really Wane To Hurt Me
[00:11] 16. Saragossa Theme
[02:56] 17. Vamos A La Playa
[03:54] 18. Kokomo
[00:14] 19. Saragossa Theme

Отчёт EAC об извлечении, выполненном 23. июня 2007, 21:31 для диска:
Saragossa Band / Party With Saragossa Band

Дисковод: PLEXTOR DVDR PX-716AL Adapter: 2 ID: 0
Режим чтения: Достоверный (C2: нет, Точный поток: да, Отключение кэша: да)
Комбинированное смещение чтения/записи: 30
Способность читать области Lead-in и Lead-out : Нет

Выходной формат: Внутренние WAV-операции
44.100 Гц; 16 бит; стерео

Другие параметры:
Заполнение пропущенных сэмплов тишиной : Да
Удаление блоков с тишиной в начале и конце : Нет
Встроенный Win32-интерфейс для Win NT/2000

Характеристики диапазона извлечения и сообщения об ошибках
Выбранный диапазон
Имя файла Z:\Time\Archive\Saragossa Band\Saragossa Band - Party With Saragossa Band.wav

Пиковый уровень 90.0 %
Качество диапазона 100.0 %
CRC 359A639C
Копирование... OK

Ошибок не произошло

Конец отчёта
AUDIOCHECKER v2.0 beta (build 457) - by Dester - opdester@freemail.hu
~~~~~~~~~~~~~~~~~~~~~~~~~~~~~~~~~~
-=== НЕ РЕДАКТИРУЙТЕ ЭТОТ ФАЙЛ! ===-

Путь: ...\1992 - Party With Saragossa Band

01 -=- Saragossa Band - Party With Saragossa Band.ape -=- CDDA (100%)

204207876
Image
Продолжительность: 00:50:23
Кодек: FLAC

Треклист:
[00:16] 01. Coconut Groove
[01:04] 02. Ritmo De La Noche
[00:56] 03. Soca Dance
[01:08] 04. Annie, I'm Not Your Daddy
[01:17] 05. Cuba
[00:37] 06. D.I.S.C.O.
[00:52] 07. Gimme Hope Jo'anna
[00:55] 08. Que Sera
[00:58] 09. Kissin' In The Back Row Of The Movies
[02:25] 10. Sweat (A La La La Long)
[01:23] 11. In The Summertime
[02:13] 12. Sunshine Reggae
[03:02] 13. Matador
[02:35] 14. All That She Wants
[02:38] 15. Rastman
[04:20] 16. Night Of The Lion
[01:35] 17. I Don't Wanna Dance
[03:29] 18. I Can Help
[03:08] 19. Celebration
[02:37] 20. Ladie's Night
[04:09] 21. All Night Long (All Night)
[02:29] 22. Bamboleo
[03:32] 23. Baila Me
[02:36] 24. Get Into The Groove

Отчет EAC: отсутствует
AUDIOCHECKER v2.0 beta (build 457) - by Dester - opdester@freemail.hu
~~~~~~~~~~~~~~~~~~~~~~~~~~~~~~~~~~
-=== НЕ РЕДАКТИРУЙТЕ ЭТОТ ФАЙЛ! ===-

Путь: ...\1994 - Soca Dance

01 -=- Saragossa Band - Soca Dance.flac -=- CDDA (100%)

217151588
Image
Продолжительность: 00:50:17
Кодек: APE

Треклист:
[05:40] 01. Dschingis KhanHatschi Halef OmarMoscow (Medley)
[03:55] 02. Zabadak
[04:00] 03. Agadou
[03:06] 04. Lambada
[03:21] 05. Angelito de Nero
[03:52] 06. Kalimba de Luna
[03:13] 07. Jambo Jambo
[02:51] 08. Coco
[03:01] 09. Barbados
[03:05] 10. Do you really want to heart me
[02:58] 11. Vamos a la playa
[03:58] 12. Sun of Jamaica
[03:24] 13. Let's dance
[03:47] 14. Ramba Zamba (Medley)

Отчёт EAC об извлечении, выполненном 24. июля 2007, 10:05 для диска:
Unknown Artist / Unknown Title

Дисковод: TEAC DV-W50D Adapter: 1 ID: 0
Режим чтения: Достоверный (C2: нет, Точный поток: да, Отключение кэша: да)
Коррекция смещения при чтении: 48
Способность читать области Lead-in и Lead-out : Нет

Выходной формат: Внутренние WAV-операции
44.100 Гц; 16 бит; стерео

Другие параметры:
Заполнение пропущенных сэмплов тишиной : Да
Удаление блоков с тишиной в начале и конце : Нет
Установленный внешний ASPI-интерфейс

Характеристики диапазона извлечения и сообщения об ошибках
Выбранный диапазон
Имя файла E:\CloneCDTemp\Saragossa Band - Happy Party.wav

Пиковый уровень 100.0 %
Качество диапазона 100.0 %
CRC AF6A0174
Копирование... OK

Ошибок не произошло

Конец отчёта
AUDIOCHECKER v2.0 beta (build 457) - by Dester - opdester@freemail.hu
~~~~~~~~~~~~~~~~~~~~~~~~~~~~~~~~~~
-=== НЕ РЕДАКТИРУЙТЕ ЭТОТ ФАЙЛ! ===-

Путь: ...\1995 - Happy Party

01 -=- Saragossa Band - Happy Party.ape -=- CDDA (100%)

11987876
Image
Продолжительность: 00:45:51
Кодек: FLAC

Треклист:
[03:54] 01. Big Bamboo (Ay Ay Ay)
[03:59] 02. Disco Boogie Boogie
[03:57] 03. Rasta Man
[03:58] 04. Zabadak
[04:21] 05. Samba Ole, Rumba Ok (Making Bum Bum All Night)
[03:17] 06. Malaika
[03:22] 07. Agadou
[03:23] 08. Mosquito
[03:34] 09. Buona Sera (I Take My Chance tonight)
[03:42] 10. Ginger Red
[03:42] 11. Pas Pleurer (Please, No More Crying)
[04:35] 12. Have A Good Time

Exact Audio Copy V0.99 prebeta 5 from 4. May 2009

Отчёт EAC об извлечении, выполненном 18. октября 2009, 17:47

Saragossa Band / The Best Of

Дисковод: Optiarc DVD RW AD-5200A Adapter: 0 ID: 0

Режим чтения : Достоверность
Использование точного потока : Да
Отключение кэша аудио : Да
Использование указателей C2 : Нет

Коррекция смещения при чтении : 48
Способность читать области Lead-in и Lead-out : Нет
Заполнение пропущенных сэмплов тишиной : Да
Удаление блоков с тишиной в начале и конце : Нет
При вычислениях CRC использовались нулевые сэмплы : Да
Интерфейс : Установленный внешний ASPI-интерфейс

Выходной формат : Внутренние WAV-операции
Формат сэмплов : 44.100 Гц; 16 бит; стерео

TOC извлечённого CD

Трек | Старт | Длительность | Начальный сектор | Конечный сектор
---------------------------------------------------------------------
1 | 0:00.32 | 3:57.08 | 32 | 17814
2 | 3:57.40 | 4:02.47 | 17815 | 36011
3 | 8:00.12 | 4:00.45 | 36012 | 54056
4 | 12:00.57 | 4:00.65 | 54057 | 72121
5 | 16:01.47 | 4:24.03 | 72122 | 91924
6 | 20:25.50 | 3:19.67 | 91925 | 106916
7 | 23:45.42 | 3:25.20 | 106917 | 122311
8 | 27:10.62 | 3:25.35 | 122312 | 137721
9 | 30:36.22 | 3:37.20 | 137722 | 154016
10 | 34:13.42 | 3:44.30 | 154017 | 170846
11 | 37:57.72 | 3:44.53 | 170847 | 187699
12 | 41:42.50 | 4:35.32 | 187700 | 208356

Характеристики диапазона извлечения и сообщения об ошибках

Выбранный диапазон

Имя файла E:\Saragossa Band - The Best Of\Saragossa Band - The Best Of.wav

Пиковый уровень 100.0 %
Качество диапазона 100.0 %
CRC теста BF12A911
CRC копии BF12A911
Копирование... OK

Ошибок не произошло

AccurateRip: сводка

Трек 1 точность не определена (достоверность 2) [C44E8ECB], AccurateRip вернул [52AEBE03]
Трек 2 точность не определена (достоверность 2) [975843E9], AccurateRip вернул [AE2013E1]
Трек 3 точность не определена (достоверность 2) [4B3C7381], AccurateRip вернул [16B04511]
Трек 4 точность не определена (достоверность 2) [ABD26346], AccurateRip вернул [176590C6]
Трек 5 точность не определена (достоверность 2) [FA4C8A12], AccurateRip вернул [33B274DA]
Трек 6 точность не определена (достоверность 2) [80EC5064], AccurateRip вернул [EB9DFD74]
Трек 7 точность не определена (достоверность 2) [F5F11276], AccurateRip вернул [4D8287D6]
Трек 8 точность не определена (достоверность 2) [07D03FE7], AccurateRip вернул [5DB2AEBF]
Трек 9 точность не определена (достоверность 2) [3D4BD3BD], AccurateRip вернул [FE640D95]
Трек 10 точность не определена (достоверность 2) [1B6D4301], AccurateRip вернул [E277DF81]
Трек 11 точность не определена (достоверность 2) [1452EF72], AccurateRip вернул [D6394BD2]
Трек 12 точность не определена (достоверность 2) [58A0A162], AccurateRip вернул [329CB532]

Ни один трек не прошёл проверки на точность
В вашей базе может быть иной вариант штамповки диска

Конец отчёта
AUDIOCHECKER v2.0 beta (build 457) - by Dester - opdester@freemail.hu
~~~~~~~~~~~~~~~~~~~~~~~~~~~~~~~~~~
-=== НЕ РЕДАКТИРУЙТЕ ЭТОТ ФАЙЛ! ===-

Путь: ...\1995 - The Best Of

01 -=- Saragossa Band - The Best Of.flac -=- CDDA (100%)

201648372
Image
Продолжительность: 00:58:15
Кодек: FLAC

Треклист:
[07:05] 01. Medley dance mix
[03:01] 02. Zabadak
[04:06] 03. Medley soul
[04:27] 04. Medley caribian
[00:26] 05. Medley Dance
[06:11] 06. Medley dance 1
[04:10] 07. Medley dance 2
[04:47] 08. Medley dance 3
[03:58] 09. Zabadak 2
[04:34] 10. Have a good time
[00:15] 11. Medley dance I
[04:11] 12. Medley dance II
[05:12] 13. Medley dance part 9
[00:38] 14. Marmor, stein und eisen bricht
[01:14] 15. American pie
[03:52] 16. Medley radio cut

Exact Audio Copy V0.99 prebeta 4 from 23. January 2008

Отчёт EAC об извлечении, выполненном 29. августа 2008, 0:40

Saragossa Band / Big Bamboo

Дисковод: PLEXTOR DVDR PX-716A Adapter: 0 ID: 0

Режим чтения : Достоверность
Использование точного потока : Да
Отключение кэша аудио : Да
Использование указателей C2 : Нет

Коррекция смещения при чтении : 30
Способность читать области Lead-in и Lead-out : Да
Заполнение пропущенных сэмплов тишиной : Да
Удаление блоков с тишиной в начале и конце : Нет
При вычислениях CRC использовались нулевые сэмплы : Нет
Интерфейс : Встроенный Win32-интерфейс для Win NT/2000

Выходной формат : Внутренние WAV-операции
Формат сэмплов : 44.100 Гц; 16 бит; стерео

TOC извлечённого CD

Трек | Старт | Длительность | Начальный сектор | Конечный сектор
---------------------------------------------------------------------
1 | 0:00.32 | 7:05.38 | 32 | 31944
2 | 7:05.70 | 3:01.67 | 31945 | 45586
3 | 10:07.62 | 4:06.03 | 45587 | 64039
4 | 14:13.65 | 4:27.30 | 64040 | 84094
5 | 18:41.20 | 0:26.25 | 84095 | 86069
6 | 19:07.45 | 6:11.70 | 86070 | 113964
7 | 25:19.40 | 4:10.50 | 113965 | 132764
8 | 29:30.15 | 4:47.67 | 132765 | 154356
9 | 34:18.07 | 3:59.05 | 154357 | 172286
10 | 38:17.12 | 4:34.20 | 172287 | 192856
11 | 42:51.32 | 0:15.03 | 192857 | 193984
12 | 43:06.35 | 4:11.20 | 193985 | 212829
13 | 47:17.55 | 5:12.07 | 212830 | 236236
14 | 52:29.62 | 0:38.48 | 236237 | 239134
15 | 53:08.35 | 1:15.05 | 239135 | 244764
16 | 54:23.40 | 3:52.42 | 244765 | 262206

Характеристики диапазона извлечения и сообщения об ошибках

Выбранный диапазон

Имя файла E:\EAC rip\Saragossa Band - Big Bamboo\Saragossa Band - Big Bamboo.wav

Пиковый уровень 99.6 %
Качество диапазона 100.0 %
CRC теста BB74F38D
CRC копии BB74F38D
Копирование... OK

Ошибок не произошло

AccurateRip: сводка

Трек 1 нет в базе данных
Трек 2 нет в базе данных
Трек 3 нет в базе данных
Трек 4 нет в базе данных
Трек 5 нет в базе данных
Трек 6 нет в базе данных
Трек 7 нет в базе данных
Трек 8 нет в базе данных
Трек 9 нет в базе данных
Трек 10 нет в базе данных
Трек 11 нет в базе данных
Трек 12 нет в базе данных
Трек 13 нет в базе данных
Трек 14 нет в базе данных
Трек 15 нет в базе данных
Трек 16 нет в базе данных

Ни одного трека нет в базе AccurateRip

Конец отчёта
AUDIOCHECKER v2.0 beta (build 457) - by Dester - opdester@freemail.hu
~~~~~~~~~~~~~~~~~~~~~~~~~~~~~~~~~~
-=== НЕ РЕДАКТИРУЙТЕ ЭТОТ ФАЙЛ! ===-

Путь: ...\1997 - Big Bamboo

01 -=- Saragossa Band - Big Bamboo.flac -=- CDDA (100%)

100527924
Image
Продолжительность: 01:11:34
Кодек: FLAC

Треклист:
[03:22] 01. Agadou
[03:50] 02. Big Bamboo
[03:58] 03. Zabadak
[03:15] 04. Carneval In Rio Mix
[06:10] 05. Dance With The Saragossa Band 1
[03:59] 06. Disco Boogie Boogie
[04:29] 07. Samba Ole, Rumba Ok
[03:16] 08. Freedom Come, Freedom Go
[03:35] 09. Buona Sera
[04:12] 10. Dance With The Saragossa Band 2
[03:16] 11. Malaika
[03:53] 12. That's What We Like
[03:57] 13. Rasta Man
[04:05] 14. Reggae Medley
[03:42] 15. Ginger Red
[04:08] 16. Saragossa Soul Medley
[03:44] 17. Pas Pleurer
[04:34] 18. Have A Good Time

Exact Audio Copy V0.99 prebeta 4 from 23. January 2008

Отчёт EAC об извлечении, выполненном 27. августа 2008, 14:16

Saragossa Band / It's Party Time

Дисковод: PLEXTOR DVDR PX-716A Adapter: 0 ID: 0

Режим чтения : Достоверность
Использование точного потока : Да
Отключение кэша аудио : Да
Использование указателей C2 : Нет

Коррекция смещения при чтении : 30
Способность читать области Lead-in и Lead-out : Да
Заполнение пропущенных сэмплов тишиной : Да
Удаление блоков с тишиной в начале и конце : Нет
При вычислениях CRC использовались нулевые сэмплы : Нет
Интерфейс : Встроенный Win32-интерфейс для Win NT/2000

Выходной формат : Внутренние WAV-операции
Формат сэмплов : 44.100 Гц; 16 бит; стерео

TOC извлечённого CD

Трек | Старт | Длительность | Начальный сектор | Конечный сектор
---------------------------------------------------------------------
1 | 0:00.00 | 3:23.54 | 0 | 15278
2 | 3:23.54 | 3:52.42 | 15279 | 32720
3 | 7:16.21 | 4:00.38 | 32721 | 50758
4 | 11:16.59 | 3:17.17 | 50759 | 65550
5 | 14:34.01 | 6:11.74 | 65551 | 93449
6 | 20:46.00 | 4:01.17 | 93450 | 111541
7 | 24:47.17 | 4:31.12 | 111542 | 131878
8 | 29:18.29 | 3:18.21 | 131879 | 146749
9 | 32:36.50 | 3:37.37 | 146750 | 163061
10 | 36:14.12 | 4:13.59 | 163062 | 182095
11 | 40:27.71 | 3:18.30 | 182096 | 196975
12 | 43:46.26 | 3:55.06 | 196976 | 214606
13 | 47:41.32 | 3:58.63 | 214607 | 232519
14 | 51:40.20 | 4:07.24 | 232520 | 251068
15 | 55:47.44 | 3:43.73 | 251069 | 267866
16 | 59:31.42 | 4:09.70 | 267867 | 286611
17 | 63:41.37 | 3:45.51 | 286612 | 303537
18 | 67:27.13 | 4:34.62 | 303538 | 324149

Характеристики диапазона извлечения и сообщения об ошибках

Выбранный диапазон

Имя файла E:\EAC rip\Saragossa Band - It's Party Time.wav

Пиковый уровень 99.9 %
Качество диапазона 100.0 %
CRC теста 7F8059D3
CRC копии 7F8059D3
Копирование... OK

Ошибок не произошло

AccurateRip: сводка

Трек 1 точное извлечение (доверие 1) [4D5C5E41]
Трек 2 точное извлечение (доверие 1) [A6925D57]
Трек 3 точное извлечение (доверие 1) [29FF62D2]
Трек 4 точное извлечение (доверие 1) [966BE370]
Трек 5 точное извлечение (доверие 1) [0F6F1E38]
Трек 6 точное извлечение (доверие 1) [76E6F9FD]
Трек 7 точное извлечение (доверие 1) [5344BD83]
Трек 8 точное извлечение (доверие 1) [A74D0D51]
Трек 9 точное извлечение (доверие 1) [C613942E]
Трек 10 точное извлечение (доверие 1) [448D73C1]
Трек 11 точное извлечение (доверие 1) [1EA3C097]
Трек 12 точное извлечение (доверие 1) [251BBB3E]
Трек 13 точное извлечение (доверие 1) [649A1FB4]
Трек 14 точное извлечение (доверие 1) [7955D8C2]
Трек 15 точное извлечение (доверие 1) [B13C1DBE]
Трек 16 точное извлечение (доверие 1) [F24C5483]
Трек 17 точное извлечение (доверие 1) [A8FDAAC4]
Трек 18 точное извлечение (доверие 1) [173B2FE4]

Все треки извлечены точно

Конец отчёта
AUDIOCHECKER v2.0 beta (build 457) - by Dester - opdester@freemail.hu
~~~~~~~~~~~~~~~~~~~~~~~~~~~~~~~~~~
-=== НЕ РЕДАКТИРУЙТЕ ЭТОТ ФАЙЛ! ===-

Путь: ...\2001 - It's Party Time

01 -=- Saragossa Band - It's Party Time.flac -=- CDDA (100%)

175250484



Время раздачи: вечером и ночью.

Приятного прослушивания!
Saragossa Band (nnm-club).torrent
 Торрент: Платиновая раздача  Зарегистрирован
 
Скачать


 Зарегистрирован:   11 Апр 2010 21:13:37
 Размер:   3,27 GB  (
 Рейтинг:   4,9 (Голосов: 43)
 Поблагодарили:   149
 Проверка:   Оформление проверено модератором 11 Апр 2010 21:19:54
Как cкачать  ·  Как раздать  ·  Правильно оформить  ·  Поднять ратио!  

_________________
In Excelsis.
Загрузка...
ArchiKobold
Олигарх+
Князь Тьмы, Uploader 100+
 
Стаж: 12 лет 4 мес.
Сообщений: 18068
Ratio: 273,378
Поблагодарили: 3535
100%
Огромное спасибо за релиз. Вообще у меня иногда складывается ощущение, что ты читаешь мои мысли. Выкладываешь именно то, что надо и всегда вовремя ;)
Показать сообщения:   
Начать новую тему   Ответить на тему    Торрент-трекер NNM-Club -> Pop -> Disco, Italo-Disco, Euro-Disco, Hi-NRG (Lossless) Часовой пояс: GMT + 3
Страница 1 из 1