Классический форум-трекер
canvas not supported
Нас вместе: 4 079 435

Мать / Mother / Madeo (2009) HDRip


 
 
RSS
Начать новую тему   Ответить на тему    Торрент-трекер NNM-Club -> Зарубежное кино -> Азиатское кино (HD*Rip/LQ, DVDRip, SATRip, VHSRip)
Автор Сообщение
Bonus9272 ®
Стаж: 9 лет 10 мес.
Сообщений: 33
Ratio: 63,269
Поблагодарили: 2832
100%
russia.gif
Мать / Mother / Madeo (2009) HDRip
«Её любовь уже ничто не остановит»
Год выпуска: 2009
Производство: Корея Южная / CJ Entertainment, Barunson
Жанр: Триллер, Драма, Криминал, Детектив

Описание фильма:
Женщина спокойно живёт со своим двадцативосьмилетним сыном, занимаясь знахарством, помогая всем, нуждающимся в округе. Ни с того, ни с сего, её сына обвиняют в зверском убийстве. Матери надо доказать его невиновность или расстаться с ним на долгие года...

Режиссер: Пон Чжун Хо
Актеры: Хей-йя Ким, Вон Бин, Чин Гу, Юн Чже Мун, Чон Ми Сон, Сон Сэ Пёк, Бён-Сун Ким, Ву-хи Чун, Гин-гу Ким, Ме-ён Ё

Продолжительность: 02:09:01
Качество видео: HDRip
Перевод: Дублированный [Лицензия]



Дата мировой премьеры: 16 мая 2009
Дата российской премьеры: 20 мая 2010, «Кино без границ»
Дата выхода DVD релиза: 14 октября 2010, «Новый Диск»

Видео: MPEG-4 XviD, 704x304 (2.35:1), 23.976 fps, ~1887 Kb/s (0.368 bit/pixel)
Аудио: AC-3, 48.0 KHz, 5.1 ch, 384 Kb/s, CBR | Russian
Код:
Общее
Полное имя                               : Mat.2009.D.HDRip.avi
Формат                                   : AVI
Формат/Информация                        : Audio Video Interleave
Профиль формата                          : OpenDML
Размер файла                             : 2,06 Гбайт
Продолжительность                        : 2 ч. 9 м.
Общий поток                              : 2283 Кбит/сек
Программа кодирования                    : VirtualDubMod 1.5.10.2 (build 2540/release)
Библиотека кодирования                   : VirtualDubMod build 2540/release

Видео
Идентификатор                            : 0
Формат                                   : MPEG-4 Visual
Профиль формата                          : Advanced Simple@L5
Параметр BVOP формата                    : 2
Параметр QPel формата                    : Нет
Параметр GMC формата                     : Без точки перехода
Параметр матрицы формата                 : Default (MPEG)
Режим смешивания                         : Сжатый битовый поток
Идентификатор кодека                     : XVID
Идентификатор кодека/Подсказка           : XviD
Продолжительность                        : 2 ч. 9 м.
Битрейт                                  : 1887 Кбит/сек
Ширина                                   : 704 пикселя
Высота                                   : 304 пикселя
Соотношение сторон                       : 2,35:1
Частота кадров                           : 23,976 кадра/сек
Цветовое пространство                    : YUV
Субдискретизация насыщенности            : 4:2:0
Битовая глубина                          : 8 бит
Тип развёртки                            : Прогрессивная
Метод сжатия                             : С потерями
Бит/(Пиксели*Кадры)                      : 0.368
Размер потока                            : 1,70 Гбайт (83%)
Библиотека кодирования                   : XviD 1.2.1 (UTC 2008-12-04)

Аудио
Идентификатор                            : 1
Формат                                   : AC-3
Формат/Информация                        : Audio Coding 3
Расширение режима                        : CM (complete main)
Параметр Endianness формата              : Big
Идентификатор кодека                     : 2000
Продолжительность                        : 2 ч. 8 м.
Вид битрейта                             : Постоянный
Битрейт                                  : 384 Кбит/сек
Каналы                                   : 6 каналов
Расположение каналов                     : Front: L C R, Side: L R, LFE
Частота                                  : 48,0 КГц
Битовая глубина                          : 16 бит
Метод сжатия                             : С потерями
Задержка видео                           : 1 с. 700 мс.
Размер потока                            : 354 Мбайт (17%)
Выравнивание                             : Разделение по промежуткам
Продолжительность промежутка             : 42  мс. (1,00 видеокадр)
Время предзагрузки промежутка            : 500  мс.
Скриншоты:


Время раздачи: 24/7 - круглосуточно (по возможности)
Реставрация от: Viсtоr
[NNM-Club.ru]_Mat.2009.D.HDRip.avi.torrent
 Торрент: Платиновая раздача  Зарегистрирован
 
Скачать


 Зарегистрирован:   17 Окт 2010 00:43:36
 Размер:   2,06 GB  (
 Рейтинг:   4,5 (Голосов: 33)
 Поблагодарили:   85
 Проверка:   Оформление проверено модератором 17 Окт 2010 09:54:51
Как cкачать  ·  Как раздать  ·  Правильно оформить  ·  Поднять ратио!  
Kokoa01
Стаж: 9 лет 9 мес.
Сообщений: 64
Ratio: 24,147
100%
Откуда: Санкт-петербург
roody.gif
Заценим.

_________________

Показать сообщения:   
Начать новую тему   Ответить на тему    Торрент-трекер NNM-Club -> Зарубежное кино -> Азиатское кино (HD*Rip/LQ, DVDRip, SATRip, VHSRip) Часовой пояс: GMT + 3
Страница 1 из 1