Классический форум-трекер
canvas not supported
Нас вместе: 4 077 964

Экстремальные гонки / Initial D / Tau man ji D (2005) DVDRip


 
 
RSS
Начать новую тему   Ответить на тему    Торрент-трекер NNM-Club -> Зарубежное кино -> Азиатское кино (HD*Rip/LQ, DVDRip, SATRip, VHSRip)
Автор Сообщение
AX0000MI ®
Стаж: 9 лет 7 мес.
Сообщений: 946
Ratio: 7,464
Поблагодарили: 17765
100%
Откуда: © закрыто правообла​дателем​
logo.gif
Экстремальные гонки / Initial D / Tau man ji D (2005) DVDRip
«How fast is 1 second?»
Год выпуска: 2005
Производство: Китай, Гонконг / Media Asia Films, Sil-Metropole Organisation, Basic Pictures
Жанр: Боевик, Триллер, Драма, Криминал

Описание фильма:
Пять лет подряд каждое утро 18-летний Такуми развозил тофу, гоняя по горным дорогам на папиной старенькой Тойоте. Жизнь его однообразна, друзья не блещут интеллектом. Но работа заставила его стать настоящим профи в крутых виражах на повороте.
И вот случайно ему предлагают поучаствовать в знаменитом нелегальном состязании «Давид и Голиаф» на своей скромненькой на вид Тойоте АЕ86 против Профессиональных ночных гонщиков.
Блестящая, но неожиданная победа над местной звездой Такеши будоражит скрытый в нем до этого дух соревнования, а внезапная слава неизбежно ведет к бесчисленным приключениям, и каждое из них становится все рискованнее и увлекательнее предыдущего...

Режиссер: Вэй Кеунг Лау, Сиу Фай Мак, Ральф Рикерманн
Актеры: Шон Юе, Эдисон Чен, Джей Чоу, Энтони Вонг Чау-Санг, Чэпман То, Цуёси Абе, Энн Сузуки, Кенни Би, Лью Кэн Хунг, Джордан Чан

Продолжительность: 01:44:32
Качество видео: DVDRip
Перевод: Многоголосый закадровый



Дата мировой премьеры: 19 июня 2005
Дата российской премьеры: 19 января 2006, «Пан Терра»

Видео: MPEG-4 XviD, 720x304 (2.35:1), 25.000 fps, ~1677 Kb/s (0.306 bit/pixel)
Аудио: AC-3, 48 kHz, 2.0 ch, 192 Kb/s, CBR | Russian
Код:
Общее
Полное имя                               : Ekstrimaljnye.gonki.DVDRip..avi
Формат                                   : AVI
Формат/Информация                        : Audio Video Interleave
Размер файла                             : 1,37 Гбайт
Продолжительность                        : 1 ч. 44 м.
Общий поток                              : 1880 Кбит/сек

Видео
Идентификатор                            : 0
Формат                                   : MPEG-4 Visual
Профиль формата                          : Simple@L3
Параметр BVOP формата                    : Нет
Параметр QPel формата                    : Нет
Параметр GMC формата                     : Без точки перехода
Параметр матрицы формата                 : Default (H.263)
Идентификатор кодека                     : XVID
Идентификатор кодека/Подсказка           : XviD
Продолжительность                        : 1 ч. 44 м.
Битрейт                                  : 1677 Кбит/сек
Ширина                                   : 720 пикселей
Высота                                   : 304 пикселя
Соотношение сторон                       : 2,35:1
Частота кадров                           : 25,000 кадров/сек
Цветовое пространство                    : YUV
Субдискретизация насыщенности            : 4:2:0
Битовая глубина                          : 8 бит
Тип развёртки                            : Прогрессивная
Метод сжатия                             : С потерями
Бит/(Пиксели*Кадры)                      : 0.306
Размер потока                            : 1,22 Гбайт (89%)
Библиотека кодирования                   : XviD 1.1.2 (UTC 2006-11-01)

Аудио
Идентификатор                            : 1
Формат                                   : AC-3
Формат/Информация                        : Audio Coding 3
Расширение режима                        : CM (complete main)
Параметр Endianness формата              : Big
Идентификатор кодека                     : 2000
Продолжительность                        : 1 ч. 44 м.
Продолжительность оригинала              : 1 ч. 44 м.
Вид битрейта                             : Постоянный
Битрейт                                  : 192 Кбит/сек
Каналы                                   : 2 канала
Расположение каналов                     : Front: L R
Частота                                  : 48,0 КГц
Битовая глубина                          : 16 бит
Метод сжатия                             : С потерями
Размер потока                            : 144 Мбайт (10%)
Выравнивание                             : Соединение по промежуткам
Продолжительность промежутка             : 32  мс. (0,80 видеокадр)
Скриншоты:


Реставрация от: Viсtоr
[NNM-Club.ru]_Ekstrimaljnye.gonki.DVDRip..avi.torrent
 Торрент: Платиновая раздача  Зарегистрирован
 
Скачать


Примагнититься
 Зарегистрирован:   17 Ноя 2010 00:26:21
 Размер:   1,37 GB  (
 Рейтинг:   4,4 (Голосов: 50)
 Поблагодарили:   124
 Проверка:   Оформление проверено модератором 20 Ноя 2010 15:11:06
Как cкачать  ·  Как раздать  ·  Правильно оформить  ·  Поднять ратио!  
Zyamka21
Стаж: 9 лет 2 мес.
Сообщений: 15
Ratio: 1,928
18.06%
Откуда: Россия Буинск
russia.gif
Фильм прикольный=)
kott2009
Uploader 100+
Стаж: 9 лет 9 мес.
Сообщений: 450
Ratio: 140,872
100%
Откуда: СССР
Точно прикольный или очередной "шедевр"?
costarika
Uploaders 500+
 
Стаж: 12 лет 8 мес.
Сообщений: 618
Ratio: 600,646
Поблагодарили: 994
100%
ussr.gif
http://nnm-club.me/forum/viewtopic.php?t=5089

_________________

Еще 65535 ведер - и золотой ключик у нас в руках!
Показать сообщения:   
Начать новую тему   Ответить на тему    Торрент-трекер NNM-Club -> Зарубежное кино -> Азиатское кино (HD*Rip/LQ, DVDRip, SATRip, VHSRip) Часовой пояс: GMT + 3
Страница 1 из 1