Классический форум-трекер
canvas not supported
Нас вместе: 4 077 893

Легенда о Нараяме / The Ballad of Narayama / Narayama-bushi ko (1983) DVDRip


 
 
RSS
Начать новую тему   Ответить на тему    Торрент-трекер NNM-Club -> Зарубежное кино -> Азиатское кино (HD*Rip/LQ, DVDRip, SATRip, VHSRip)
Автор Сообщение
Amira ®
Стаж: 10 лет 5 мес.
Сообщений: 74
Ratio: 3,409
Поблагодарили: 1837
100%
Легенда о Нараяме / The Ballad of Narayama / Narayama-bushi ko (1983) DVDRip
«Only time could change the cruelty of tradition ... only their Love could survive it ...»
Год выпуска: 1983
Производство: Япония / Toei Company
Жанр: Драма

Описание фильма:
Фильм режиссёра Сёхэя Имамура. Картина является переработкой одноимённого фильма режиссёра Кэйсукэ Киносита, снятого в 1958 году. Сюжет основан на книге Ситиро Фуказава «Человек из Тохоку».
Забытая маленькая японская деревня, где неторопливо течёт почти первобытная жизнь, хотя в фильме события происходят примерно в 19-м веке.
Суть «Легенды о Нараяме» - это обычай, который испокон веков соблюдается в деревне. Когда старику или старой женщине исполняется 70 лет деревня и семья не должна больше кормить бесполезный рот. Старший сын должен отнести пожилого человека умереть от голода и жажды на вершину горы Нараяма. Отнести сам на своих плечах...

Режиссер: Сёхэй Имамура
Актеры: Кен Огата, Сумико Сакамото, Тонпэй Хидари, Такэдзё Аки, Сёити Одзава, Фудзио Токита, Сансё Синсуи, Сэйдзи Курасаки, Дзюнко Такада, Мицуко Байсё

Продолжительность: 02:04:06
Качество видео: DVDRip
Перевод: Одноголосый закадровый



Дата мировой премьеры: 29 апреля 1983

Видео: MPEG-4 XviD, 720x416 (16:9), 25.000 fps, ~1377 Kb/s (0.184 bit/pixel)
Аудио: AC-3, 48,0 KHz, 2.0 ch, 192 Kb/s, CBR | Russian
Главной героине фильма Орин вот-вот исполнится 70. Она полна сил, у неё целы все зубы, но закон есть закон. Она сама готовится к исходу и готовит своего сына Тацухэя, который нежно любит её, к последнему пути. Исполняя долг сына, Тацухэй относит мать умирать в зимний день, когда выпадает первый снег...
Когда Тацухэй возвращается домой он другими глазами смотрит на своего маленького сына. Пройдут годы и сын понесёт его на гору Нараяма...
Каннский кинофестиваль, 1983 год
Канны, Франция
Победитель (1):
  1. Золотая пальмовая ветвь, Сёхэй Имамура

Японская киноокадемия, 1984 год
Победитель (3):
  1. Награда за лучший фильм
  2. Награда за лучшую мужскую роль, Кен Огата
  3. Награда за лучший звук, Kenichi Benitani

Blue Ribbon Awards, 1984 год
Победитель (1): Премия "Голубая лента" за лучшую мужскую роль, Кен Огата
Hawaii International Film Festival, 1983
Победитель (1): Награда "Превосходство в кинематографии", Масао Тотидзава
Hochi Film Awards, 1983
Победитель (1): Награда за лучшую женскую роль второго плана, Мицуко Байсё
Mainichi Film Concours, 1983 год
Победитель (2):
  1. Награда за лучшую мужскую роль, Кен Огата
  2. Награда за лучшую звукозапись, Kenichi Benitani
Код:
Общее
Полное имя                               : Легенда о Нараяме
Формат                                   : AVI
Формат/Информация                        : Audio Video Interleave
Размер файла                             : 1,37 Гбайт
Продолжительность                        : 2 ч. 4 м.
Общий поток                              : 1576 Кбит/сек
Программа кодирования                    : VirtualDubMod 1.5.4.1 (build 2178/release)
Библиотека кодирования                   : VirtualDubMod build 2178/release

Видео
Идентификатор                            : 0
Формат                                   : MPEG-4 Visual
Профиль формата                          : Advanced Simple@L5
Параметр BVOP формата                    : 1
Параметр QPel формата                    : Нет
Параметр GMC формата                     : Без точки перехода
Параметр матрицы формата                 : Выборочная
Идентификатор кодека                     : XVID
Идентификатор кодека/Подсказка           : XviD
Продолжительность                        : 2 ч. 4 м.
Битрейт                                  : 1377 Кбит/сек
Ширина                                   : 720 пикселей
Высота                                   : 416 пикселей
Соотношение сторон                       : 1,731
Частота кадров                           : 25,000 кадров/сек
Цветовое пространство                    : YUV
Субдискретизация насыщенности            : 4:2:0
Битовая глубина                          : 8 бит
Тип развёртки                            : Прогрессивная
Метод сжатия                             : С потерями
Бит/(Пиксели*Кадры)                      : 0.184
Размер потока                            : 1,19 Гбайт (87%)
Библиотека кодирования                   : XviD 1.2.0.dev47 (UTC 2006-11-01)

Аудио
Идентификатор                            : 1
Формат                                   : AC-3
Формат/Информация                        : Audio Coding 3
Расширение режима                        : CM (complete main)
Параметр Endianness формата              : Big
Идентификатор кодека                     : 2000
Продолжительность                        : 2 ч. 4 м.
Вид битрейта                             : Постоянный
Битрейт                                  : 192 Кбит/сек
Каналы                                   : 2 канала
Расположение каналов                     : Front: L R
Частота                                  : 48,0 КГц
Битовая глубина                          : 16 бит
Метод сжатия                             : С потерями
Размер потока                            : 170 Мбайт (12%)
Выравнивание                             : Разделение по промежуткам
Продолжительность промежутка             : 96  мс. (2,40 видеокадра)
Время предзагрузки промежутка            : 96  мс.
Язык                                     : Russian
Скриншоты:


Время раздачи: 24/7 - круглосуточно (по возможности)
Реставрация от: Viсtоr
[NNM-Club.ru] Legenda o Narayame.torrent
 Торрент: Платиновая раздача  Зарегистрирован
 
Скачать


 Зарегистрирован:   18 Июн 2009 13:42:37
 Размер:   1,37 GB  (
 Рейтинг:   4,9 (Голосов: 28)
 Поблагодарили:   122
 Проверка:   Оформление проверено модератором 18 Июн 2009 14:18:42
Как cкачать  ·  Как раздать  ·  Правильно оформить  ·  Поднять ратио!  
domdass
Стаж: 9 лет 6 мес.
Сообщений: 2
Ratio: 1,024
100%
russia.gif
Буду качать и буду раздавать........
Показать сообщения:   
Начать новую тему   Ответить на тему    Торрент-трекер NNM-Club -> Зарубежное кино -> Азиатское кино (HD*Rip/LQ, DVDRip, SATRip, VHSRip) Часовой пояс: GMT + 3
Страница 1 из 1