Классический форум-трекер
canvas not supported
Нас вместе: 4 079 093

Сумрачный Самурай / The Twilight Samurai / Tasogare Seibei (2002) DVDRip


 
 
RSS
Начать новую тему   Ответить на тему    Торрент-трекер NNM-Club -> Зарубежное кино -> Азиатское кино (HD*Rip/LQ, DVDRip, SATRip, VHSRip)
Автор Сообщение
Sergei Muntian ®
Стаж: 11 лет 6 мес.
Сообщений: 2
Ratio: 4,758
Поблагодарили: 79
0%
Откуда: Tel Aviv
israel.gif
Сумрачный Самурай / The Twilight Samurai / Tasogare Seibei (2002) DVDRip
Год выпуска: 2002
Производство: Япония / Eisei Gekijo Company, Hakuhodo, Nippon Shuppan Hanbai (Nippan) K.K.
Жанр: Драма, Мелодрама

Описание фильма:
История Сейбея — скромного самурая низшего ранга и его семьи, живших в эпоху смуты. Сейбей победил в поединке противника деревянным мечом, и когда об этом распространилась молва, он против своей воли оказался вовлеченным в конфликт внутри самурайского клана и получает приказ сюзерена убить такого же, как и он сам, вассала...

Режиссер: Ёдзи Ямада
Актеры: Хироюки Санада, Риэ Миядзава, Нэндзи Кобаяси, Рен Осуги, Мицуру Фукикоси, Канако Фукаура, Хироши Канбе, Мики Ито, Эрина Хашигучи, Рэйко Кусамура

Продолжительность: 02:09:00
Качество видео: DVDRip
Перевод: Многоголосый закадровый, профессиональный



Дата мировой премьеры: 2 ноября 2002
Дата российской премьеры: 6 ноября 2003, «Кино без границ», «Пан Терра»

Видео: MPEG-4 DivX 5, 640x352 (16:9), 23.976 fps, ~550 Kb/s (0.102 bit/pixel)
Аудио: MP3, 48.0 KHz, 2.0 ch, ~197 Kb/s, VBR | Russian
В основу фильма положены произведения одного из самых известных авторов исторических рассказов Сюхэя Фудзисава, чьи книги изданы тиражом более 23 миллионов экземпляров. Своеобразный мир шедевров Фудзисава, которые никто до сих пор не решался экранизировать, воплощен на экране режиссёром Ёдзи Ямада.
Фильм был номинирован на Оскар как Лучший иностранный фильм 2004 г.
Открывающий фильм Фестиваля японского кино в Москве в 2003 г.
Участник конкурсной программы в Берлине в 2003 г.
Обладатель 12-ти наград Японской Киноакадемии (из 14 номинаций) за 2003 год.
Код:
Общее
Полное имя                               : The Twilight Samurai (2002).avi
Формат                                   : AVI
Формат/Информация                        : Audio Video Interleave
Размер файла                             : 701 Мбайт
Продолжительность                        : 2 ч. 9 м.
Режим общего битрейта                    : Переменный
Общий поток                              : 760 Кбит/сек
Программа кодирования                    : VirtualDubMod 1.5.4.1 (build 2178/release)
Библиотека кодирования                   : VirtualDubMod build 2178/release

Видео
Идентификатор                            : 0
Формат                                   : MPEG-4 Visual
Параметр BVOP формата                    : 1
Параметр QPel формата                    : Нет
Параметр GMC формата                     : Без точки перехода
Параметр матрицы формата                 : Default (H.263)
Режим смешивания                         : Сжатый битовый поток
Идентификатор кодека                     : DX50
Идентификатор кодека/Подсказка           : DivX 5
Продолжительность                        : 2 ч. 9 м.
Битрейт                                  : 550 Кбит/сек
Ширина                                   : 640 пикселей
Высота                                   : 352 пикселя
Соотношение сторон                       : 16:9
Частота кадров                           : 23,976 кадра/сек
Цветовое пространство                    : YUV
Субдискретизация насыщенности            : 4:2:0
Битовая глубина                          : 8 бит
Тип развёртки                            : Прогрессивная
Метод сжатия                             : С потерями
Бит/(Пиксели*Кадры)                      : 0.102
Размер потока                            : 508 Мбайт (72%)
Библиотека кодирования                   : DivX 5.1.1 (Maupiti) (UTC 2003-11-19)

Аудио
Идентификатор                            : 1
Формат                                   : MPEG Audio
Версия формата                           : Version 1
Профиль формата                          : Layer 3
Режим                                    : Joint stereo
Расширение режима                        : MS Stereo
Идентификатор кодека                     : 55
Идентификатор кодека/Подсказка           : MP3
Продолжительность                        : 2 ч. 9 м.
Вид битрейта                             : Переменный
Битрейт                                  : 197 Кбит/сек
Каналы                                   : 2 канала
Частота                                  : 48,0 КГц
Метод сжатия                             : С потерями
Задержка видео                           : 8 мс.
Размер потока                            : 181 Мбайт (26%)
Выравнивание                             : Разделение по промежуткам
Продолжительность промежутка             : 24  мс. (0,58 видеокадр)
Время предзагрузки промежутка            : 261  мс.
Скриншоты:


Реставрация от: Viсtоr
The_Twilight_Samurai_[nnm-club.ru].torrent
 Торрент: Платиновая раздача  Зарегистрирован
 
Скачать


 Зарегистрирован:   30 Мар 2008 10:35:22
 Размер:   701 MB  (
 Рейтинг:   4,8 (Голосов: 18)
 Поблагодарили:   79
 Проверка:   Оформление проверено модератором 30 Мар 2008 18:08:35
Как cкачать  ·  Как раздать  ·  Правильно оформить  ·  Поднять ратио!  
Загрузка...
grek-19bob54
Гость
мне не понравился
oldsoul
Стаж: 12 лет 4 мес.
Сообщений: 132
Ratio: 1,049
15.2%
russia.gif
а я ща заценю, подножмите , спасибо

_________________
confess your sins
Der Verstand
 
Стаж: 11 лет
Сообщений: 72
Ratio: 155,07
Поблагодарили: 2823
100%
russia.gif
Кино неоднозначное,посмотрел с удовольствием!Пасиб!
Oritiku
Стаж: 9 лет 4 мес.
Сообщений: 44
Ratio: 33K
Раздал: 882 GB
Поблагодарили: 283
Откуда: Сад грешников...
russia.gif
Кино замечательное! Посмотреть стоит!
Показать сообщения:   
Начать новую тему   Ответить на тему    Торрент-трекер NNM-Club -> Зарубежное кино -> Азиатское кино (HD*Rip/LQ, DVDRip, SATRip, VHSRip) Часовой пояс: GMT + 3
Страница 1 из 1