Классический форум-трекер
canvas not supported
Нас вместе: 4 079 303

Феникс в ярости / Raging Phoenix / Deu suay doo (2009) HDRip


 
 
RSS
Начать новую тему   Ответить на тему    Торрент-трекер NNM-Club -> Зарубежное кино -> Азиатское кино (HD*Rip/LQ, DVDRip, SATRip, VHSRip)
Автор Сообщение
VanillaSky ®
 
Стаж: 12 лет 5 мес.
Сообщений: 58
Ratio: 262,014
Раздал: 31,46 TB
Поблагодарили: 6937
100%
monaco.gif
Феникс в ярости / Raging Phoenix / Deu suay doo (2009) HDRip
Год выпуска: 2009
Производство: Таиланд / Baa-Ram-Ewe
Жанр: Драма, Боевик

Описание фильма:
Молодую девушку Дью бросает парень и она с горя напивается. Ее пытаются похитить, но ей на выручку приходит бригада бродяг-алкоголиков: мастер Саним, Ки Му и длинноволосый Ки Ма, позже к ним присоединяется загадочный Ки Квай с прической из дрэдов. Они берут ее под свою опеку и обучают приемам боевого искусства Мейрайют, состоящего из пьяного тайского бокса и танцевальных движений из хип-хопа...

Режиссер: Рашан Лимтракул
Актеры: Йанин Висмитананда, Рунгтаван Джиндасинг, Дэвид Буено, Клонгкрит Клайданг, Прамоте Кеавчан, Понгоанай Найянанонт, Пакпум Пермпоне, Тулая Хунтра, Айно Такэсита, Джутарат Манапунсаб

Продолжительность: 01:49:02
Качество видео: HDRip
Перевод: Многоголосый закадровый | Лицензия



Дата мировой премьеры:.........12 августа 2009
Дата выхода DVD релиза:........16 декабря 2010, «CP-Digital»

Видео: MPEG-4 XviD, 720x400 (16:9), 25.000 fps, ~1449 Kb/s (0.201 bit/pixel)
Аудио: AC-3, 48,0 KHz, 5.1 ch, 448 Kb/s, CBR | Russian
Код:

Общее
Полное имя                               : Feniks.v.Jarosti.2009.P.HDRip_[NNM-Club.RU].avi
Формат                                   : AVI
Формат/Информация                        : Audio Video Interleave
Размер файла                             : 1,45 Гбайт
Продолжительность                        : 1 ч. 49 м.
Общий поток                              : 1907 Кбит/сек
Программа кодирования                    : VirtualDubMod 1.5.10.2 (build 2540/release)
Библиотека кодирования                   : VirtualDub build 32839/release

Видео
Идентификатор                            : 0
Формат                                   : MPEG-4 Visual
Профиль формата                          : Advanced Simple@L5
Параметр BVOP формата                    : 1
Параметр QPel формата                    : Нет
Параметр GMC формата                     : Без точки перехода
Параметр матрицы формата                 : Default (MPEG)
Режим смешивания                         : Сжатый битовый поток
Идентификатор кодека                     : XVID
Идентификатор кодека/Подсказка           : XviD
Продолжительность                        : 1 ч. 49 м.
Битрейт                                  : 1449 Кбит/сек
Ширина                                   : 720 пикселей
Высота                                   : 400 пикселей
Соотношение сторон                       : 16:9
Частота кадров                           : 25,000 кадров/сек
Частота кадров в оригинале               : 24,000 кадра/сек
Цветовое пространство                    : YUV
Субдискретизация насыщенности            : 4:2:0
Битовая глубина                          : 8 бит
Тип развёртки                            : Прогрессивная
Метод сжатия                             : С потерями
Бит/(Пиксели*Кадры)                      : 0.201
Размер потока                            : 1,10 Гбайт (76%)
Библиотека кодирования                   : XviD 1.1.2 (UTC 2006-11-01)

Аудио
Идентификатор                            : 1
Формат                                   : AC-3
Формат/Информация                        : Audio Coding 3
Расширение режима                        : CM (complete main)
Параметр Endianness формата              : Big
Идентификатор кодека                     : 2000
Продолжительность                        : 1 ч. 48 м.
Вид битрейта                             : Постоянный
Битрейт                                  : 448 Кбит/сек
Каналы                                   : 6 каналов
Расположение каналов                     : Front: L C R, Side: L R, LFE
Частота                                  : 48,0 КГц
Битовая глубина                          : 16 бит
Метод сжатия                             : С потерями
Размер потока                            : 349 Мбайт (23%)
Выравнивание                             : Разделение по промежуткам
Продолжительность промежутка             : 40  мс. (1,00 видеокадр)
Время предзагрузки промежутка            : 500  мс.
Скриншоты:


Время раздачи: 24/7 - круглосуточно (по возможности)
Реставрация от: Viсtоr
Feniks.v.Jarosti.2009.P.HDRip_[NNM-Club.RU].avi.torrent
 Торрент: Платиновая раздача  Зарегистрирован
 
Скачать


Примагнититься
 Зарегистрирован:   15 Дек 2010 18:32:27
 Размер:   1,45 GB  (
 Рейтинг:   4,7 (Голосов: 26)
 Поблагодарили:   81
 Проверка:   Оформление проверено модератором 30 Дек 2010 23:03:12
Как cкачать  ·  Как раздать  ·  Правильно оформить  ·  Поднять ратио!  
Stan79
Стаж: 10 лет 1 мес.
Сообщений: 358
Ratio: 16,022
Поблагодарили: 1001
100%
russia.gif
Фильм понравился-)

P.S. Добавьте, что производство Таиланд
ВалВин
Стаж: 8 лет 10 мес.
Сообщений: 2
Ratio: 10,934
56.52%
russia.gif
Фэньк ю,фильм не часто такой увидиш ,понравилось
viero
Стаж: 9 лет 11 мес.
Сообщений: 433
Ratio: 41,116
100%
Откуда: Дубна/Тверь
witch.png
Я всё понимаю - может и хорошее кино, только по каким именам я догадаться должен о стране-производителе. А на вид по мне что эти, что узбеки - хоть флажок нарисуйте! Спасибо. :незнает:

_________________
Показать сообщения:   
Начать новую тему   Ответить на тему    Торрент-трекер NNM-Club -> Зарубежное кино -> Азиатское кино (HD*Rip/LQ, DVDRip, SATRip, VHSRip) Часовой пояс: GMT + 3
Страница 1 из 1