Классический форум-трекер
canvas not supported
Нас вместе: 4 079 088

Черная Маска / Black Mask / Hak hap (1996) DVDRip


 
 
RSS
Начать новую тему   Ответить на тему    Торрент-трекер NNM-Club -> Зарубежное кино -> Азиатское кино (HD*Rip/LQ, DVDRip, SATRip, VHSRip)
Автор Сообщение
DTorum ®
Стаж: 9 лет 7 мес.
Сообщений: 53
Ratio: 3,587
Поблагодарили: 1227
100%
Черная Маска / Black Mask / Hak hap (1996) DVDRip
Год выпуска: 1996
Производство: Гонконг / Distant Horizons, Film Workshop, Win's Entertainment Ltd.
Жанр: Фантастика, Боевик, Триллер, Комедия, Криминал, Приключения

Описание фильма:
Главный герой решается на отчаянный шаг. Путем сложнейшей хирургической операции он становится невосприимчив к боли. Кто он теперь? Мститель, не знающий пощады? Теперь его лицо скрывает таинственная черная маска, приводящая врагов в состояние панического ужаса. Какая тайна скрывается за ней? Ответ могут дать только мертвые. Но мертвые не спешат выдавать свои секреты. А Черная Маска вновь вершит свой суд...

Режиссер: Дэниэл Ли
Актеры: Джет Ли, Чинг Ван Лау, Карен Мок, Франсуаза Йип, Конг Ланг, Энтони Вонг Чау-Санг, Синь Синь Сюн, Моусес Чан, Кинг-фай Чунг, Кен Лок

Продолжительность: 01:38:22
Качество видео: DVDRip
Перевод: Двухголосый закадровый



Дата мировой премьеры: 9 ноября 1996

Видео: MPEG-4 DivX 5, 704x368 (1.913:1), 29.970 fps, ~1526 Kb/s (0.197 bit/pixel)
Аудио: AC-3, 48.0 KHz, 5.1 ch, 448 Kb/s, CBR | Russian
Код:
Общее
Полное имя                               : Chernaya.maska.1996.DivX.DVDRip.avi
Формат                                   : AVI
Формат/Информация                        : Audio Video Interleave
Размер файла                             : 1,36 Гбайт
Продолжительность                        : 1 ч. 38 м.
Общий поток                              : 1986 Кбит/сек
Программа кодирования                    : VirtualDubMod 1.5.10.2 (build 2540/release)
Библиотека кодирования                   : VirtualDubMod build 2540/release

Видео
Идентификатор                            : 0
Формат                                   : MPEG-4 Visual
Параметр BVOP формата                    : 1
Параметр QPel формата                    : Нет
Параметр GMC формата                     : Без точки перехода
Параметр матрицы формата                 : Default (H.263)
Режим смешивания                         : Сжатый битовый поток
Идентификатор кодека                     : DX50
Идентификатор кодека/Подсказка           : DivX 5
Продолжительность                        : 1 ч. 38 м.
Битрейт                                  : 1526 Кбит/сек
Ширина                                   : 704 пикселя
Высота                                   : 368 пикселей
Соотношение сторон                       : 1,913
Частота кадров                           : 29,970 кадров/сек
Цветовое пространство                    : YUV
Субдискретизация насыщенности            : 4:2:0
Битовая глубина                          : 8 бит
Тип развёртки                            : Прогрессивная
Метод сжатия                             : С потерями
Бит/(Пиксели*Кадры)                      : 0.197
Размер потока                            : 1,05 Гбайт (77%)
Библиотека кодирования                   : DivX 5.2.1 (WaffleDay) (UTC 2004-09-08)

Аудио
Идентификатор                            : 1
Формат                                   : AC-3
Формат/Информация                        : Audio Coding 3
Расширение режима                        : CM (complete main)
Параметр Endianness формата              : Big
Идентификатор кодека                     : 2000
Продолжительность                        : 1 ч. 38 м.
Вид битрейта                             : Постоянный
Битрейт                                  : 448 Кбит/сек
Каналы                                   : 6 каналов
Расположение каналов                     : Front: L C R, Side: L R, LFE
Частота                                  : 48,0 КГц
Битовая глубина                          : 16 бит
Метод сжатия                             : С потерями
Размер потока                            : 315 Мбайт (23%)
Выравнивание                             : Разделение по промежуткам
Продолжительность промежутка             : 33  мс. (1,00 видеокадр)
Время предзагрузки промежутка            : 500  мс.
Скриншоты:


Время раздачи: 24/7 - круглосуточно (по возможности)
Реставрация от: Viсtоr
[NNM-Club.ru]_Chernaya.maska.1996.DivX.DVDRip.avi.torrent
 Торрент: Платиновая раздача  Зарегистрирован
 
Скачать


Примагнититься
 Зарегистрирован:   03 Фев 2011 22:50:28
 Размер:   1,36 GB  (
 Рейтинг:   4,4 (Голосов: 17)
 Поблагодарили:   71
 Проверка:   Оформление проверено модератором 08 Фев 2011 11:31:54
Как cкачать  ·  Как раздать  ·  Правильно оформить  ·  Поднять ратио!  
Загрузка...
MaxMason

Online
Стаж: 11 лет
Сообщений: 595
Ratio: 31,262
Раздал: 42,24 TB
100%
Откуда: Екатеринбург
russia.gif
Ну дак чё... Будем качать или нет?

_________________
© Created by MaxMason
Показать сообщения:   
Начать новую тему   Ответить на тему    Торрент-трекер NNM-Club -> Зарубежное кино -> Азиатское кино (HD*Rip/LQ, DVDRip, SATRip, VHSRip) Часовой пояс: GMT + 3
Страница 1 из 1