Классический форум-трекер
canvas not supported
Нас вместе: 4 077 741

Без пощады / No Mercy / Yongseoneun Eupda (2010) DVDRip


 
 
RSS
Начать новую тему   Ответить на тему    Торрент-трекер NNM-Club -> Зарубежное кино -> Азиатское кино (HD*Rip/LQ, DVDRip, SATRip, VHSRip)
Автор Сообщение
ra3wa ®
Модератор Видео
RG Releasers
Uploader 100+
 
Стаж: 9 лет 2 мес.
Сообщений: 11847
Ratio: 7566,873
Раздал: 353,4 TB
Поблагодарили: 2238232
100%
Откуда: Воронеж
russia.gif
Без пощады / No Mercy / Yongseoneun Eupda (2010) DVDRip
Год выпуска: 2010
Производство: Корея Южная / Cinema Service
Жанр: Триллер, Драма, Криминал

Описание фильма:
Судебный патологоанатом Ган назначается исследовать труп молодой женщины, которая является жертвой серийного убийцы. Все улики детективу Мин указывают на убийцу — эколога-фанатика Ли Сон Хо. Но когда дочь доктора Ган похищают и доктора начинает шантажировать Ли, обычное дело превращается в смертельную игру...

Режиссер: Ким Хён Чжун
Актеры: Соль Гён Гу, Рю Сын Бом, Фрэнк М. Эхерн, Хан Хе Чжин, Нам Кён, Пак Сан Ук, Сон Чжи Ру

Продолжительность: 02:03:29
Качество видео: DVDRip
Перевод: Одноголосый закадровый, профессиональный



Дата мировой премьеры: 7 января 2010

Видеокодек: XviD
Битрейт видео: ~1296 Kb/s
Размер кадра: 704x288
Аудио: AC-3, 48 kHz, 5.1 ch, 384 Kb/s, CBR | Russian
Код:

Общее
Полное имя                               : Bez poshady.avi
Формат                                   : AVI
Формат/Информация                        : Audio Video Interleave
Размер файла                             : 1,46 Гбайт
Продолжительность                        : 2 ч. 3 м.
Общий поток                              : 1689 Кбит/сек
Программа кодирования                    : VirtualDubMod 1.5.10.2 (build 2540/release)
Библиотека кодирования                   : VirtualDubMod build 2540/release

Видео
Идентификатор                            : 0
Формат                                   : MPEG-4 Visual
Профиль формата                          : Advanced Simple@L5
Параметр BVOP формата                    : 2
Параметр QPel формата                    : Нет
Параметр GMC формата                     : Без точки перехода
Параметр матрицы формата                 : Default (MPEG)
Идентификатор кодека                     : XVID
Идентификатор кодека/Подсказка           : XviD
Продолжительность                        : 2 ч. 3 м.
Битрейт                                  : 1296 Кбит/сек
Ширина                                   : 704 пикселя
Высота                                   : 288 пикселей
Соотношение сторон                       : 2,40:1
Частота кадров                           : 23,976 кадра/сек
Цветовое пространство                    : YUV
Субдискретизация насыщенности            : 4:2:0
Битовая глубина                          : 8 бит
Тип развёртки                            : Прогрессивная
Метод сжатия                             : С потерями
Бит/(Пиксели*Кадры)                      : 0.267
Размер потока                            : 1,12 Гбайт (77%)
Библиотека кодирования                   : XviD 1.2.1 (UTC 2008-12-04)

Аудио
Идентификатор                            : 1
Формат                                   : AC-3
Формат/Информация                        : Audio Coding 3
Расширение режима                        : CM (complete main)
Параметр Endianness формата              : Big
Идентификатор кодека                     : 2000
Продолжительность                        : 2 ч. 3 м.
Вид битрейта                             : Постоянный
Битрейт                                  : 384 Кбит/сек
Каналы                                   : 6 каналов
Расположение каналов                     : Front: L C R, Side: L R, LFE
Частота                                  : 48,0 КГц
Битовая глубина                          : 16 бит
Метод сжатия                             : С потерями
Размер потока                            : 339 Мбайт (23%)
Выравнивание                             : Разделение по промежуткам
Продолжительность промежутка             : 42  мс. (1,00 видеокадр)
Время предзагрузки промежутка            : 500  мс.
Скриншоты:


Время раздачи: 24/7 - круглосуточно
Реставрация от: Viсtоr
[NNM-Club.ru]_Bez poshady.avi.torrent
 Торрент: Платиновая раздача  Зарегистрирован
 
Скачать


Примагнититься
 Зарегистрирован:   08 Фев 2011 14:39:12
 Размер:   1,46 GB  (
 Рейтинг:   4,4 (Голосов: 18)
 Поблагодарили:   53
 Проверка:   Оформление проверено модератором 10 Фев 2011 11:35:04
Как cкачать  ·  Как раздать  ·  Правильно оформить  ·  Поднять ратио!  
AxeLU
Стаж: 11 лет 7 мес.
Сообщений: 120
Ratio: 1,433
100%
Откуда: ясенево
russia.gif
кто смотрел отпишитесь, стоит качать или как ?
K-131
Стаж: 10 лет 4 мес.
Сообщений: 427
Ratio: 80,193
Поблагодарили: 11707
100%
[font:dfb61358fa="Georgia"]Сильный, смысловой фильм. Лично мне понравился.

_________________
katatsuburi
Стаж: 9 лет 8 мес.
Сообщений: 323
Ratio: 14,404
Поблагодарили: 886
100%
Откуда: Челябинск
russia.gif
Отличный триллер :респект: не смотря даже на то, что в реальности нормальный патологоанатом не смог бы не заметить то, о чём профессор Ган узнал от шантажиста в самом конце фильма :мегашок:

_________________
Мяу
Показать сообщения:   
Начать новую тему   Ответить на тему    Торрент-трекер NNM-Club -> Зарубежное кино -> Азиатское кино (HD*Rip/LQ, DVDRip, SATRip, VHSRip) Часовой пояс: GMT + 3
Страница 1 из 1