Классический форум-трекер
canvas not supported
Нас вместе: 4 079 177

Эффект близнецов / Близнецы / The Twins Effect / Chin gei bin (2003) DVDRip


 
 
RSS
Начать новую тему   Ответить на тему    Торрент-трекер NNM-Club -> Зарубежное кино -> Азиатское кино (HD*Rip/LQ, DVDRip, SATRip, VHSRip)
Автор Сообщение
Vorobe'72 ®
Стаж: 9 лет 10 мес.
Сообщений: 288
Ratio: 15,116
Поблагодарили: 11806
100%
russia.gif
Эффект близнецов / Близнецы / The Twins Effect / Chin gei bin (2003) DVDRip
«A new age of darkness is dawning»
Год выпуска: 2003
Производство: Гонконг / Emperor Multimedia Group (EMG), Goldpeak
Жанр: Боевик, Комедия, Приключения

Описание фильма:
Рив - один из команды охотников, сражающихся с могущественным кланом вампиров - носферату. Обычными средствами победить этих монстров невозможно, поэтому Рив и его боевые соратники используют специальную сыворотку из крови вампира, которая многократно повышает их физические способности. Но, если вовремя не принять противоядие от этого допинга, можно самому превратиться в того, на кого охотишься. Однажды Рив получает известие, что в Гонконге без вести пропали его восемнадцатилетние сестры-близняшки. Положение резко осложняется, когда он узнает, что в городе появился легендарный вампир Казаф, командир легиона мертвых, который ищет себе невесту среди молодых девушек...

Режиссер: Данте Лам, Донни Ен
Актеры: Джеки Чан, Чарлин Чой, Гиллиан Чун, Экин Чэн, Эдисон Чен, Энтони Вонг Чау Санг, Мики Хардт, Джози Хо, Карен Мок, Марки Ли Кэмпбелл

Продолжительность: 01:42:24
Качество видео: DVDRip

Перевод: Дублированный
Роли озвучивают: Жанна Никонова, Денис Беспалый, Олег Куценко, Вячеслав Баранов, Мария Овчинникова



Дата мировой премьеры: 24 июня 2003
Дата российской премьеры: 26 февраля 2004, «Централ Партнершип», «Гельварс»
Дата выхода DVD релиза: 18 марта 2004, «CP-Digital»

Видео: MPEG-4 DivX 5, 720x408 (16:9), 25.000 fps, ~1075 Kb/s (0.146 bit/pixel)
Аудио#1: MP3, 48.0 KHz, 2.0 ch, 128 Kb/s, CBR | Russian
Аудио#2: MP3, 48.0 KHz, 2.0 ch, 128 Kb/s, CBR | Chinese
Код:
Общее
Полное имя                               : Эффект близнецов(2003@Боевик, Мистика).avi
Формат                                   : AVI
Формат/Информация                        : Audio Video Interleave
Размер файла                             : 986 Мбайт
Продолжительность                        : 1 ч. 42 м.
Общий поток                              : 1346 Кбит/сек
Режиссёр                                 : <<Andrey Vorobe'>>
Программа кодирования                    : VirtualDubMod 1.5.10.1 Рус от Stvens Inc.™ www.stvens.amillo.net (build 2439/release)
Библиотека кодирования                   : VirtualDubMod build 2439/release

Видео
Идентификатор                            : 0
Формат                                   : MPEG-4 Visual
Параметр BVOP формата                    : Да
Параметр QPel формата                    : Нет
Параметр GMC формата                     : Без точки перехода
Параметр матрицы формата                 : Default (H.263)
Идентификатор кодека                     : DX50
Идентификатор кодека/Подсказка           : DivX 5
Продолжительность                        : 1 ч. 42 м.
Битрейт                                  : 1075 Кбит/сек
Ширина                                   : 720 пикселей
Высота                                   : 408 пикселей
Соотношение сторон                       : 16:9
Частота кадров                           : 25,000 кадров/сек
Цветовое пространство                    : YUV
Субдискретизация насыщенности            : 4:2:0
Битовая глубина                          : 8 бит
Тип развёртки                            : Прогрессивная
Метод сжатия                             : С потерями
Бит/(Пиксели*Кадры)                      : 0.146
Размер потока                            : 787 Мбайт (80%)
Библиотека кодирования                   : DivX 6.8.5 (UTC 2009-08-20)

Аудио #1
Идентификатор                            : 1
Формат                                   : MPEG Audio
Версия формата                           : Version 1
Профиль формата                          : Layer 3
Режим                                    : Joint stereo
Идентификатор кодека                     : 55
Идентификатор кодека/Подсказка           : MP3
Продолжительность                        : 1 ч. 42 м.
Вид битрейта                             : Постоянный
Битрейт                                  : 128 Кбит/сек
Каналы                                   : 2 канала
Частота                                  : 48,0 КГц
Метод сжатия                             : С потерями
Размер потока                            : 93,8 Мбайт (10%)
Выравнивание                             : Разделение по промежуткам
Продолжительность промежутка             : 40  мс. (1,00 видеокадр)
Время предзагрузки промежутка            : 500  мс.

Аудио #2
Идентификатор                            : 2
Формат                                   : MPEG Audio
Версия формата                           : Version 1
Профиль формата                          : Layer 3
Режим                                    : Joint stereo
Расширение режима                        : MS Stereo
Идентификатор кодека                     : 55
Идентификатор кодека/Подсказка           : MP3
Продолжительность                        : 1 ч. 42 м.
Вид битрейта                             : Постоянный
Битрейт                                  : 128 Кбит/сек
Каналы                                   : 2 канала
Частота                                  : 48,0 КГц
Метод сжатия                             : С потерями
Размер потока                            : 93,8 Мбайт (10%)
Выравнивание                             : Разделение по промежуткам
Продолжительность промежутка             : 40  мс. (1,00 видеокадр)
Время предзагрузки промежутка            : 500  мс.
Скриншоты: Реставрация от: Viсtоr
[NNM-Club.ru]_YEffekt bliznetsov(2003@Boevik, Mistika).avi.torrent
 Торрент: Золотая раздача  Зарегистрирован
 
Зарегистрируйтесь и скачайте торрент!
19,6 KB

 Зарегистрирован:   26 Июл 2010 17:13:05
 Размер:   986 MB  (
 Рейтинг:   4,6 (Голосов: 31)
 Поблагодарили:   91
 Проверка:   Оформление проверено модератором 27 Июл 2010 11:17:22
Как cкачать  ·  Как раздать  ·  Правильно оформить  ·  Поднять ратио!  

_________________
rreeer
Стаж: 9 лет 5 мес.
Сообщений: 14
Ratio: 0,624
100%
russia.gif
Фильм классный смотрел много раз
Крылатый
Стаж: 10 лет 5 мес.
Сообщений: 952
Ratio: 13,513
Раздал: 47,16 TB
Поблагодарили: 1621
100%
начало нудное. выключил на 15 минуте.

_________________
Мрр...
rreeer
Стаж: 9 лет 5 мес.
Сообщений: 14
Ratio: 0,624
100%
russia.gif
Ну и иди смотри тогда гарри поттера! :смех:
denso555
Стаж: 8 лет 6 мес.
Сообщений: 1
Ratio: 18,757
100%
russia.gif
Суперский фильмец
dmigol
Стаж: 9 лет 2 мес.
Сообщений: 421
Ratio: 3,531
100%
ukraine.gif
фильм смешной и с интересным сюжетом.джеки чан как всегда на высоте.
Показать сообщения:   
Начать новую тему   Ответить на тему    Торрент-трекер NNM-Club -> Зарубежное кино -> Азиатское кино (HD*Rip/LQ, DVDRip, SATRip, VHSRip) Часовой пояс: GMT + 3
Страница 1 из 1