Классический форум-трекер
canvas not supported
Нас вместе: 4 078 907

Munich Machine - Introducing The Midnite Ladies (1977) [FLAC|Lossless]<Soul, Funk, Disco>


 
 
RSS
Начать новую тему   Ответить на тему    Торрент-трекер NNM-Club -> Pop -> Disco, Italo-Disco, Euro-Disco, Hi-NRG (Lossless)
Автор Сообщение
Mozart777888 ®
 
Стаж: 10 лет
Сообщений: 187
Ratio: 10,36
Раздал: 15,67 TB
Поблагодарили: 3256
100%
Откуда: Самара
russia.gif
Munich Machine - Introducing The Midnite Ladies (1977)
Год: 1977
Жанр: Soul, Funk, Disco
Продолжительность: 00:32:00

Кодек: FLAC
Битрейт: Lossless

Трек лист:
01. Get on the Funk Train
02. Love to Love You Baby
03. Trouble Maker
04. Try Me, I Know We Can Make It
05. I Wanna Funk with You Tonite
06. Spring Affair
07. Love to Love You Baby [reprise]
Обложки внутри.
Код:

Exact Audio Copy V0.99 prebeta 4 from 23. January 2008

EAC extraction logfile from 21. September 2008, 8:54

Munich Machine / Introducing The Midnite Ladies

Used drive : TSSTcorpCDDVDW SH-S203B Adapter: 6 ID: 0

Read mode : Secure
Utilize accurate stream : Yes
Defeat audio cache : Yes
Make use of C2 pointers : No

Read offset correction : 6
Overread into Lead-In and Lead-Out : No
Fill up missing offset samples with silence : Yes
Delete leading and trailing silent blocks : No
Null samples used in CRC calculations : Yes
Used interface : Installed external ASPI interface

Used output format : User Defined Encoder
Selected bitrate : 1024 kBit/s
Quality : High
Add ID3 tag : No
Command line compressor : C:\Program Files\FLAC\flac.exe
Additional command line options : -8 -V -T "ARTIST=%a" -T "TITLE=%t" -T "ALBUM=%g" -T "DATE=%y" -T "TRACKNUMBER=%n" -T "GENRE=%m" -T "COMMENT=%e" %s -o %d

TOC of the extracted CD

Track | Start | Length | Start sector | End sector
---------------------------------------------------------
1 | 0:00.00 | 15:43.33 | 0 | 70757
2 | 15:43.33 | 2:32.57 | 70758 | 82214
3 | 18:16.15 | 2:47.06 | 82215 | 94745
4 | 21:03.21 | 3:30.39 | 94746 | 110534
5 | 24:33.60 | 3:26.43 | 110535 | 126027
6 | 28:00.28 | 2:25.19 | 126028 | 136921
7 | 30:25.47 | 1:34.61 | 136922 | 144032

Range status and errors

Selected range

Filename C:\uTorrent\CD\Munich Machine - Introducing The Midnite Ladies\Munich Machine - Introducing The Midnite Ladies.wav

Peak level 100.0 %
Range quality 100.0 %
Copy CRC 55386941
Copy OK

No errors occurred

End of status report
Код:

-----------------------

DON'T MODIFY THIS FILE

-----------------------

PERFORMER: auCDtect Task Manager, ver. 1.5.1RC4 build 1.5.1.5
Copyright (c) 2008-2010 y-soft. All rights reserved
http://y-soft.org

ANALYZER: auCDtect: CD records authenticity detector, version 0.8.2
Copyright (c) 2004 Oleg Berngardt. All rights reserved.
Copyright (c) 2004 Alexander Djourik. All rights reserved.

FILE: Munich Machine - Introducing The Midnite Ladies.flac
  Size: 223389402 Hash: EB5B7306B78BF1DBC20123E6B95203ED Accuracy: -m0
  Conclusion: CDDA 100%
  Signature: A5C462F715B450BA4257242B4E9BBD9CF120E346
Время раздачи: С 18:00 до 23:00
[NNM-Club.ru]_Munich Machine - Introducing The Midnite Ladies.torrent
 Торрент: Платиновая раздача  Зарегистрирован
 
Скачать


 Зарегистрирован:   11 Апр 2011 20:15:30
 Размер:   217 MB  (
 Рейтинг:   4,9 (Голосов: 12)
 Поблагодарили:   41
 Проверка:   Оформление проверено модератором 12 Апр 2011 03:20:04
Как cкачать  ·  Как раздать  ·  Правильно оформить  ·  Поднять ратио!  
Загрузка...
AAG_500
Стаж: 9 лет 4 мес.
Сообщений: 552
Ratio: 15,222
Раздал: 19,29 TB
100%
Откуда: Los-Engels на Саратовщине
ussr.gif
СПАСИБИЩЕ ОГРОМАДНЕЙШЕЕ!!!
:приветствую: :поклоняется: :супер!:
 !  Примечание от Колыч:
Капсом не злоупотребляем!

_________________
Ничего лишнего! Страна и так знает своих Г...
mirabo4
Стаж: 8 лет 10 мес.
Сообщений: 236
Ratio: 3,137
100%
Откуда: St.Petersburg
russia.gif
Спасиб http://www.youtube.com/watch?v=mjSA6lNHUOk&feature=related
Показать сообщения:   
Начать новую тему   Ответить на тему    Торрент-трекер NNM-Club -> Pop -> Disco, Italo-Disco, Euro-Disco, Hi-NRG (Lossless) Часовой пояс: GMT + 3
Страница 1 из 1