Классический форум-трекер
canvas not supported
Нас вместе: 4 083 722
Платим за отзывы

Злодей / Villain / Akunin (2010) DVDRip


 
 
RSS
Начать новую тему   Ответить на тему    Торрент-трекер NNM-Club -> Зарубежное кино -> Азиатское кино (HD*Rip/LQ, DVDRip, SATRip, VHSRip)
Автор Сообщение
zzeebrra ®
Стаж: 10 лет 2 мес.
Сообщений: 519
Ratio: 26,857
Раздал: 7,525 TB
Поблагодарили: 36304
100%
ukraine.gif
Злодей / Villain / Akunin (2010) DVDRip
Год выпуска: 2010
Производство: Япония / Amuse, The Asahi Shimbun Newspaper, Dentsu, Yahoo Japan
Жанр: Драма

Описание фильма:
Юити Симидзу живет в рыбацкой деревушке, затерянной где-то в префектуре Нагасаки, со своими бабушкой и дедушкой. Он заботится о них, постоянно возит деда в больницу и помогает бабушке. Мицуё Магомэ живет в городе Сага со своей младшей сестрой. Эти две одиноких души могли бы встретиться раньше и обрести счастье, но теперь уже слишком поздно: Юити разыскивает полиция по подозрению в убийстве девушки из Фукуоки — Ёсино Исибаси. Какое стечение обстоятельств...

Режиссер: Ли Сан Иль
Актеры: Ери Фукатсу, Сатоси Цумабуки, Акира Эмото, Сабу Кавахара, Кирин Кики, Хикари Мицусима, Масаки Окада

Продолжительность: 02:19:57
Качество видео: DVDRip
Перевод: Одноголосый закадровый (DeMon)



Дата мировой премьеры: 11 сентября 2010

Видео: MPEG-4 XviD, 720x392 (16:9), 23.976 fps, ~1874 Kb/s (0.277 bit/pixel)
Аудио: AC-3, 48.0 KHz, 5.1 ch, 320 Kb/s, CBR | Russian
Код:
Общее
Полное имя                               : Zlodej.2010.avi
Формат                                   : AVI
Формат/Информация                        : Audio Video Interleave
Размер файла                             : 2,15 Гбайт
Продолжительность                        : 2 ч. 19 м.
Общий поток                              : 2203 Кбит/сек
Программа кодирования                    : VirtualDubMod 1.5.10.2 (build 2540/release)
Библиотека кодирования                   : VirtualDubMod build 2540/release

Видео
Идентификатор                            : 0
Формат                                   : MPEG-4 Visual
Профиль формата                          : Advanced Simple@L5
Параметр BVOP формата                    : 3
Параметр QPel формата                    : Нет
Параметр GMC формата                     : Без точки перехода
Параметр матрицы формата                 : Default (H.263)
Идентификатор кодека                     : XVID
Идентификатор кодека/Подсказка           : XviD
Продолжительность                        : 2 ч. 19 м.
Битрейт                                  : 1874 Кбит/сек
Ширина                                   : 720 пикселей
Высота                                   : 392 пикселя
Соотношение сторон                       : 1,85:1
Частота кадров                           : 23,976 кадра/сек
Цветовое пространство                    : YUV
Субдискретизация насыщенности            : 4:2:0
Битовая глубина                          : 8 бит
Тип развёртки                            : Прогрессивная
Метод сжатия                             : С потерями
Бит/(Пиксели*Кадры)                      : 0.277
Размер потока                            : 1,83 Гбайт (85%)
Библиотека кодирования                   : XviD 1.2.1 (UTC 2008-12-04)

Аудио
Идентификатор                            : 1
Формат                                   : AC-3
Формат/Информация                        : Audio Coding 3
Расширение режима                        : CM (complete main)
Параметр Endianness формата              : Big
Идентификатор кодека                     : 2000
Продолжительность                        : 2 ч. 19 м.
Вид битрейта                             : Постоянный
Битрейт                                  : 320 Кбит/сек
Каналы                                   : 6 каналов
Расположение каналов                     : Front: L C R, Side: L R, LFE
Частота                                  : 48,0 КГц
Битовая глубина                          : 16 бит
Метод сжатия                             : С потерями
Размер потока                            : 320 Мбайт (15%)
Выравнивание                             : Разделение по промежуткам
Продолжительность промежутка             : 42  мс. (1,00 видеокадр)
Время предзагрузки промежутка            : 500  мс.
Скриншоты:


Время раздачи: 24/7 - круглосуточно (по возможности)
Реставрация от: Viсtоr
[NNM-Club.ru]_Zlodej.2010.avi.torrent
 Торрент: Платиновая раздача  Зарегистрирован
 
Скачать


Примагнититься
 Зарегистрирован:   03 Май 2011 19:37:58
 Размер:   2,15 GB  (
 Рейтинг:    (Голосов: 7)
 Поблагодарили:   13
 Проверка:   Оформление проверено модератором 03 Май 2011 20:12:17
Как cкачать  ·  Как раздать  ·  Правильно оформить  ·  Поднять ратио!  
Loading...
Показать сообщения:   
Начать новую тему   Ответить на тему    Торрент-трекер NNM-Club -> Зарубежное кино -> Азиатское кино (HD*Rip/LQ, DVDRip, SATRip, VHSRip) Часовой пояс: GMT + 3
Страница 1 из 1