Классический форум-трекер
canvas not supported
Нас вместе: 4 079 498

Dee D. Jackson - Cosmic Curves + Thunder & Lightning (1978-1980) [APE|Lossless]<Disco/Cosmo-Disco>


 
 
RSS
Начать новую тему   Ответить на тему    Торрент-трекер NNM-Club -> Pop -> Disco, Italo-Disco, Euro-Disco, Hi-NRG (Lossless)
Автор Сообщение
Bigbeer ®
RG Music
Сталкер
 
Стаж: 10 лет
Сообщений: 3264
Ratio: 259,312
Поблагодарили: 57841
100%
pirates.png
Dee D. Jackson - Cosmic Curves + Thunder & Lightning (1978-1980)
Год: 1978-1980
Издание: Warner/Chappell Music/СД-Максимум CDM 1000-521(2000г)
Жанр: Disco/Cosmo-Disco
Продолжительность: 01:17:46
Источник: Интернет

Кодек: APE
Тип рипа: Image+.cue
Битрейт: Lossless

Треклист:
Cosmic Curves
01. Automatic Lover :: 4:07
02. Red Flight :: 4:11
03. Galaxy Of Love :: 4:49
04. Meteor Man :: 4:47
05. Venus, The Godess Of Love :: 3:53
06. Galaxy Police :: 4:42
07. Cosmic Curves :: 6:01
08. Falling Into Space :: 4:40
Thunder & Lightning
09. SOS (Love The Rescue) :: 4:22
10. Which Way Is Up :: 4:28
11. Living In A Dream :: 5:01
12. Teach You How To Dance :: 5:36
13. Thunder & Lightning :: 4:22
14. Trail Blazer :: 3:47
15. Sky Walking :: 4:27
16. I'm Dying :: 4:01
17. Stop All This Madness :: 4:33
Код:
Exact Audio Copy V0.99 prebeta 4 from 23. January 2008

Отчёт EAC об извлечении, выполненном 11. февраля 2009, 18:39

Dee D. Jackson / Cosmic Curves + Thunder & Lightning

Дисковод: PIONEER DVD-RW  DVR-112   Adapter: 0  ID: 0

Режим чтения                 : Достоверность
Использование точного потока : Да
Отключение кэша аудио        : Да
Использование указателей C2  : Нет

Коррекция смещения при чтении                     : 48
Способность читать области Lead-in и Lead-out     : Нет
Заполнение пропущенных сэмплов тишиной            : Да
Удаление блоков с тишиной в начале и конце        : Нет
При вычислениях CRC использовались нулевые сэмплы : Да
Интерфейс                                         : Установленный внешний ASPI-интерфейс

Выходной формат : Внутренние WAV-операции
Формат сэмплов  : 44.100 Гц; 16 бит; стерео

TOC извлечённого CD

     Трек |   Старт  | Длительность | Начальный сектор | Конечный сектор
    ---------------------------------------------------------------------
       1  |  0:00.00 |    4:06.57   |           0      |      18506
       2  |  4:06.57 |    4:10.50   |       18507      |      37306
       3  |  8:17.32 |    4:49.25   |       37307      |      59006
       4  | 13:06.57 |    4:46.50   |       59007      |      80506
       5  | 17:53.32 |    3:53.18   |       80507      |      97999
       6  | 21:46.50 |    4:42.32   |       98000      |     119181
       7  | 26:29.07 |    6:01.20   |      119182      |     146276
       8  | 32:30.27 |    4:39.47   |      146277      |     167248
       9  | 37:09.74 |    4:21.73   |      167249      |     186896
      10  | 41:31.72 |    4:27.55   |      186897      |     206976
      11  | 45:59.52 |    5:01.02   |      206977      |     229553
      12  | 51:00.54 |    5:35.40   |      229554      |     254718
      13  | 56:36.19 |    4:21.49   |      254719      |     274342
      14  | 60:57.68 |    3:46.55   |      274343      |     291347
      15  | 64:44.48 |    4:26.50   |      291348      |     311347
      16  | 69:11.23 |    4:01.00   |      311348      |     329422
      17  | 73:12.23 |    4:33.35   |      329423      |     349932

Характеристики диапазона извлечения и сообщения об ошибках

Выбранный диапазон

     Имя файла C:\Documents and Settings\Serg\Рабочий стол\Новая папка\Dee D. Jackson - Cosmic Curves + Thunder & Lightning.wav

     Пиковый уровень 99.4 %
     Качество диапазона 99.9 %
     CRC копии 74061889
     Копирование... OK

Ошибок не произошло

Конец отчёта
Код:
AUDIOCHECKER v2.0 beta (build 457) - by Dester - opdester@freemail.hu
~~~~~~~~~~~~~~~~~~~~~~~~~~~~~~~~~~
-=== DO NOT EDIT THIS FILE! ===-

Path: ...\Dee_D.Jackson

1 -=- Dee D. Jackson - Cosmic Curves + Thunder & Lightning.ape -=- CDDA (100%)

264079124


Время раздачи: с 01:00 до 19:00 МСК
[NNM-Club.ru]_Dee_D.Jackson.torrent
 Торрент: Платиновая раздача  Зарегистрирован
 
Скачать


 Зарегистрирован:   11 Ноя 2010 16:02:13
 Размер:   467 MB  (
 Рейтинг:   4,8 (Голосов: 20)
 Поблагодарили:   85
 Проверка:   Оформление проверено модератором 11 Ноя 2010 16:35:30
Как cкачать  ·  Как раздать  ·  Правильно оформить  ·  Поднять ратио!  
wadimus
Стаж: 10 лет 6 мес.
Сообщений: 5587
Ratio: 7,388
Поблагодарили: 165
100%
Откуда: Красноярск
russia.gif
спасибо!

ЗЫ. а оригиналы подлинее были :)
1978 - Cosmic Curves - 10 треков
1980 - Thunder & Lightning - 15 треков

ЗЗЫ. нет, все же оригиналы были на LP (8 и 9 треков), а когда переиздавали их на CD, добавили бонус-треки
Bigbeer ®
RG Music
Сталкер
 
Стаж: 10 лет
Сообщений: 3264
Ratio: 259,312
Поблагодарили: 57841
100%
pirates.png
wadimus
всегда пожалуйста =)
wadimus
Стаж: 10 лет 6 мес.
Сообщений: 5587
Ratio: 7,388
Поблагодарили: 165
100%
Откуда: Красноярск
russia.gif
Bigbeer
обращайся за остальными альбомами этой певицы. усё е! :) :выпивают:
S@D
Стаж: 10 лет
Сообщений: 245
Ratio: 8,246
15.79%
Класс, спасибо.
Bigbeer ®
RG Music
Сталкер
 
Стаж: 10 лет
Сообщений: 3264
Ratio: 259,312
Поблагодарили: 57841
100%
pirates.png
S@D
пожалуйста
Показать сообщения:   
Начать новую тему   Ответить на тему    Торрент-трекер NNM-Club -> Pop -> Disco, Italo-Disco, Euro-Disco, Hi-NRG (Lossless) Часовой пояс: GMT + 3
Страница 1 из 1