Классический форум-трекер
canvas not supported
Нас вместе: 4 079 109

V.A. - The Best Projects Of Axel Breitung (ex. Silent Circle) (2004) [FLAC|Lossless]<Pop, Eurodisco>


 
 
RSS
Начать новую тему   Ответить на тему    Торрент-трекер NNM-Club -> Pop -> Disco, Italo-Disco, Euro-Disco, Hi-NRG (Lossless)
Автор Сообщение
Beijing65 ®
Модератор Музыки
RG Music
 
Стаж: 9 лет 1 мес.
Сообщений: 2440
Ratio: 1676,651
Поблагодарили: 127878
100%
V.A. - The Best Projects Of Axel Breitung (ex. Silent Circle) (2004)
Special Edition For Fans Of Silent Circle

Год: 2004
Жанр: Pop, Eurodisco
Продолжительность: 01:15:57

Кодек: FLAC
Битрейт: Lossless

Трек лист:
01. Joy Peters - Don't Loose Your Heart
02. Michael Bedford - Tonight
03. Cliff Turner - Your Love
04. Michael Bedford - I'm Back To Stay
05. Michael Bedford - Space Boys
06. Joy Peters - One Night In Love
07. Chikeria - Le Freak
08. Michael Bedford - More Than A Kiss
09. June Grand - Hot Stuff
10. June Grand - Shy Girl
11. Art Affair - Workaholic (25 Hours-A-Day-Mix)
12. Silent Circle - Is It Love
13. Silent Circle - What A Shame (Masterbeat Mix)
14. Cliff Turner - Moonlight Affair (Maxi Version)

Bonus Tracks:
15. Joy Peters - One Night In Love (Maxi Version)
16. Joy Peters - Don't Loose Your Heart (Maxi Version)
17. Michael Bedford - More Than A Kiss (Maxi Version)
Axel Breitung - один из ведущих и авторитетнейших немецких композиторов и продюсеров сделавший в мире танцевальной музыки не меньше чем Дитер Болен.
Работал с Thomas Anders, Fancy, Michael Bedford, Joy Peters, DJ Bobo, Ace Of Base и др., в конце 90-х был со продюсером Дитера Болена по Modern Talking.
Но конечно самый известный его проект - Silent Circle, для которого Axel является настоящим "творческим локомотивом".
Код: выделить все

Exact Audio Copy V0.99 prebeta 4 from 23. January 2008

Отчёт EAC об извлечении, выполненном 13. октября 2008, 2:21

Various / The Best Projects Of Axel Breitung

Дисковод: _NEC    DVD_RW ND-3540A   Adapter: 0  ID: 0

Режим чтения                 : Достоверность
Использование точного потока : Да
Отключение кэша аудио        : Да
Использование указателей C2  : Нет

Коррекция смещения при чтении                     : 48
Способность читать области Lead-in и Lead-out     : Нет
Заполнение пропущенных сэмплов тишиной            : Да
Удаление блоков с тишиной в начале и конце        : Нет
При вычислениях CRC использовались нулевые сэмплы : Нет
Интерфейс                                         : Встроенный Win32-интерфейс для Win NT/2000

Выходной формат : Внутренние WAV-операции
Формат сэмплов  : 44.100 Гц; 16 бит; стерео

TOC извлечённого CD

     Трек |   Старт  | Длительность | Начальный сектор | Конечный сектор
    ---------------------------------------------------------------------
       1  |  0:00.00 |    3:05.18   |           0      |      13892
       2  |  3:05.18 |    3:27.40   |       13893      |      29457
       3  |  6:32.58 |    3:28.19   |       29458      |      45076
       4  | 10:01.02 |    2:59.65   |       45077      |      58566
       5  | 13:00.67 |    3:39.15   |       58567      |      75006
       6  | 16:40.07 |    4:01.73   |       75007      |      93154
       7  | 20:42.05 |    3:27.45   |       93155      |     108724
       8  | 24:09.50 |    3:48.33   |      108725      |     125857
       9  | 27:58.08 |    5:09.50   |      125858      |     149082
      10  | 33:07.58 |    3:42.71   |      149083      |     165803
      11  | 36:50.54 |    6:00.01   |      165804      |     192804
      12  | 42:50.55 |    4:28.22   |      192805      |     212926
      13  | 47:19.02 |    6:36.25   |      212927      |     242651
      14  | 53:55.27 |    6:13.57   |      242652      |     270683
      15  | 60:09.09 |    6:23.33   |      270684      |     299441
      16  | 66:32.42 |    5:20.62   |      299442      |     323503
      17  | 71:53.29 |    6:03.71   |      323504      |     350799

Характеристики диапазона извлечения и сообщения об ошибках

Выбранный диапазон

     Имя файла D:\Temp\Various - The Best Projects Of Axel Breitung.wav

     Пиковый уровень 100.0 %
     Качество диапазона 100.0 %
     CRC копии 230DE110
     Копирование... OK

Ошибок не произошло

Конец отчёта
Код: выделить все

-----------------------

DON'T MODIFY THIS FILE

-----------------------

PERFORMER: auCDtect Task Manager, ver. 1.5.1RC4 build 1.5.1.5
Copyright (c) 2008-2010 y-soft. All rights reserved
http://y-soft.org

ANALYZER: auCDtect: CD records authenticity detector, version 0.8.2
Copyright (c) 2004 Oleg Berngardt. All rights reserved.
Copyright (c) 2004 Alexander Djourik. All rights reserved.

FILE: Various - The Best Projects Of Axel Breitung.flac
  Size: 580553448 Hash: 242BCB5EC350CF05C027F4DCBE0AC5F6 Accuracy: -m0
  Conclusion: CDDA 100%
  Signature: 2F0BDF2BA2149E9EB10D2218332F36949A5DB484
Время раздачи: 24/7 до 5-ти сидов
The Best Projects Of Axel Breitung - 2004 [NNM-club].torrent
 Торрент: Платиновая раздача  Зарегистрирован
 
Скачать


 Зарегистрирован:   14 Апр 2011 06:31:34
 Размер:   555 MB  (
 Рейтинг:   4,9 (Голосов: 15)
 Поблагодарили:   40
 Проверка:   Оформление проверено модератором 14 Апр 2011 10:26:17
Как cкачать  ·  Как раздать  ·  Правильно оформить  ·  Поднять ратио!  
m1693
Стаж: 8 лет 6 мес.
Сообщений: 15
Ratio: 1,188
100%
Откуда: Киев
ukraine.gif
Огромное спасибо.
Показать сообщения:   
Начать новую тему   Ответить на тему    Торрент-трекер NNM-Club -> Pop -> Disco, Italo-Disco, Euro-Disco, Hi-NRG (Lossless) Часовой пояс: GMT + 3
Страница 1 из 1