Классический форум-трекер
canvas not supported
Нас вместе: 4 104 007

Марево (2010) DVDRip [4 серии из 4]


 
 
RSS
Начать новую тему   Ответить на тему    Торрент-трекер NNM-Club -> Отечественные сериалы
Автор Сообщение
bacchus ®
Стаж: 10 лет 6 мес.
Сообщений: 1625
Ratio: 93,086
Поблагодарили: 183460
100%
Откуда: Винница
ukraine.gif
Марево (2010) DVDRip [4 серии из 4]
Русское название: Марево
Год выпуска: 2010
Жанр: Мелодрама
Выпущено: Россия, Кинокомпания «ШАР»

Дата выхода DVD: 9 июня 2011, «Монолит»
Режиссер: Константин Худяков
Актеры: Татьяна Науменко, Петр Савченко, Юрий Стоянов, Наталья Тетенова, Максим Емельянов, Евгений Филичкин, Алёна Бабенко, Кирилл Емельянов, Олег Басилашвили, Алиса Фрейндлих

Описание фильма:
Юный Никоша Гоголь приезжает на летние каникулы в свое родовое имение Васильевку. Его встречают обожаемая маменька и сестра. Они все стараются угодить Никоше, угостить чем-нибудь вкусненьким. На прогулке в городе они встречают своих соседей — Афанасия Ивановича Товстогуба и его жену Пульхерию Ивановну, двух старичков, нежно любящих и трогательно заботящихся друг о друге, и Ивана Ивановича с Иваном Никифоровичем, двух задушевных друзей, чьим отношениям вскоре грозит нешуточное испытание. А Гоголю скучно в тесном мелкопоместном мирке, он мечтает совсем о других людях и отношениях. Юноша заболевает и в горячечном бреду к нему приходят герои его будущих произведений — и Городничий, И Иван Иванович с Иваном Никифоровичем, и заседатели, и Пульхерия Ивановна с Афанасием Ивановичем, и Башмачкин… И возникает в его сознании марево, переплетение реальности и фантазии, сочной, яркой украинской мелкопоместной жизни и фантасмагории.

Продолжительность: 4 х ~ 00:43:16
Качество видео: DVDRip
Сэмпл: Скачать

Видеокодек: DivX 5
Битрейт видео: ~2284 kb/s
Размер кадра: 720x400
Аудиокодек: MP3
Битрейт аудио: 2 ch, 128 kb/s
Общее
Полное имя : E:\Фильмы\Marevo.(1-4.serii.iz.4).2010.DivX.DVDRip\Marevo.(1.serija.iz.4).2010.DivX.DVDRip.avi
Формат : AVI
Формат/Информация : Audio Video Interleave
Размер файла : 756 Мбайт
Продолжительность : 43 м.
Общий поток : 2414 Кбит/сек
Программа кодирования : VirtualDubMod 1.5.4.1 (build 2178/release)
Библиотека кодирования : VirtualDubMod build 2178/release

Видео
Идентификатор : 0
Формат : MPEG-4 Visual
Параметр BVOP формата : 1
Параметр QPel формата : Нет
Параметр GMC формата : Без точки перехода
Параметр матрицы формата : Default (H.263)
Режим смешивания : Сжатый битовый поток
Идентификатор кодека : DX50
Идентификатор кодека/Подсказка : DivX 5
Продолжительность : 43 м.
Битрейт : 2279 Кбит/сек
Ширина : 720 пикс.
Высота : 400 пикс.
Соотношение сторон : 16:9
Частота кадров : 25,000 кадр/сек
Цветовое пространство : YUV
Подвыборка цветности : 4:2:0
Битовая глубина : 8 бит
Тип развёртки : Прогрессивная
Метод сжатия : С потерями
Бит/(Пиксели*Кадры) : 0.316
Размер потока : 714 Мбайт (94%)
Библиотека кодирования : DivX 5.2.1 (WaffleDay) (UTC 2004-09-08)

Аудио
Идентификатор : 1
Формат : MPEG Audio
Версия формата : Version 1
Профиль формата : Layer 3
Режим : Joint stereo
Идентификатор кодека : 55
Идентификатор кодека/Подсказка : MP3
Продолжительность : 43 м.
Вид битрейта : Постоянный
Битрейт : 128 Кбит/сек
Каналы : 2 канала
Частота : 48,0 КГц
Метод сжатия : С потерями
Размер потока : 40,1 Мбайт (5%)
Выравнивание : Соединение по промежуткам
Продолжительность промежутка : 80 мс. (2,00 видеокадра)
Время предзагрузки промежутка : 504 ms
Библиотека кодирования : LAME3.96r
Настройки программы : -m j -V 4 -q 2 -lowpass 17.5 -b 128
Язык : Russian


Время раздачи: С 07:30 до 00:00
[NNM-Club.ru]_Marevo.(1-4.serii.iz.4).2010.DVDRip.torrent
 Торрент: Платиновая раздача  Зарегистрирован
 
Скачать


 Зарегистрирован:   12 Авг 2011 05:00:00
 Размер:   2,75 GB  (
 Рейтинг:   4,2 (Голосов: 13)
 Поблагодарили:   89
 Проверка:   Оформление проверено модератором 12 Авг 2011 10:02:18
Как cкачать  ·  Как раздать  ·  Правильно оформить  ·  Поднять ратио!  

_________________
Gurkin56
Стаж: 9 лет 9 мес.
Сообщений: 2657
Ratio: 0,903
Поблагодарили: 184206
100%
Откуда: Wonderland
Актёры с большой буквы. Спасибо. Поглузимся в атмосферу украинского села и бреда будущего классика.
Показать сообщения:   
Начать новую тему   Ответить на тему    Торрент-трекер NNM-Club -> Отечественные сериалы Часовой пояс: GMT + 3
Страница 1 из 1