Классический форум-трекер
canvas not supported
Нас вместе: 4 136 148

Секта (1-4 серии из 4) (2011) SATRip


 
 
RSS
Начать новую тему   Ответить на тему    Торрент-трекер NNM-Club -> Отечественные сериалы
Автор Сообщение
Krucha ®
Стаж: 11 лет 7 мес.
Сообщений: 3646
Ratio: 163.335
Поблагодарили: 253865
100%
Откуда: Запорожье
ussr.gif
Секта (2011) SATRip
Русское название: Секта

Год выпуска: 2011
Жанр: Мелодрама



Премьера РФ: 10 сентября 2011

Режиссер: Валерий Девятилов
Актеры: Карина Разумовская, Александр Ратников, Дмитрий Исаев, Виктория Адельфина, Петр Кислов, Юлия Галкина, Екатерина Травова, Алексей Медведев, Наталья Ромашенко, Майя Полянская, Сергей Коваленко, Максим Демченко

Описание фильма:
Наталья узнает о своей беременности. Казалось бы, эта новость должна обрадовать героиню и укрепить ее брак. Но происходит все наоборот: муж бросает ее, лучшая подруга предает, мать отворачивается. Жизнь Натальи в одночасье рушится, и девушка остается наедине со своим отчаянием.

Продолжительность: 00:44:00 мин - серия
Качество видео: SATRip

Видеокодек: Xvid
Битрейт видео: ~1380 kb/s
Размер кадра: 704х400
Аудиокодек: MP3 2.0
Битрейт аудио: ~128.00 kbps

ВНИМАНИЕ!!! ТОРРЕНТ ПЕРЕЗАЛИТ! ДОБАВЛЕНА 3-4 СЕРИЯ!
Внимание! Раздача ведётся путём добавления новых серий; при каждом добавлении создётся новый торрент. Чтобы начать докачку новой серии, пользователям необходимо сделать следующее:
(1) остановить скачивание,
(2) удалить старый торрент у себя из клиента (старые серии удалять не надо),
(3) скачать новый торрент и запустить его у себя в клиенте вместо старого, при этом указать клиенту путь в старую папку куда и должно происходить скачивание новых серий.
Ваш клиент при этом должен произвести хеширование (проверку) старой папки (если не производит сам - помогите ему сделать это), и будет докачивать только те серии которых у вас ещё нет. Старые серии при этом не удаляются, а продолжают раздаваться!
Eсли вы уже удалили старые серии, то предотвратить повторную закачку старых серий можно, отжав галочку в соответсвующих местах при запуске нового торрента. По возможности, желательно не удалять старые серии как можно дольше чтобы релизёр не столько продолжал раздавать старые серии, а смог сконцентрироваться на новых.
Общее
Полное имя : E:\Sekta.2011.SATRip\Sekta.2011.SATRip.01.avi
Формат : AVI
Формат/Информация : Audio Video Interleave
Размер файла : 482 Мбайт
Продолжительность : 44 м.
Общий поток : 1518 Кбит/сек
Программа кодирования : MEncoder UNKNOWN-4.2.4
Библиотека кодирования : Boilsoft AVI tool build 1/release

Видео
Идентификатор : 0
Формат : MPEG-4 Visual
Профиль формата : Simple@L3
Параметр BVOP формата : Нет
Параметр QPel формата : Нет
Параметр GMC формата : Без точки перехода
Параметр матрицы формата : Default (H.263)
Идентификатор кодека : XVID
Идентификатор кодека/Подсказка : XviD
Продолжительность : 44 м.
Битрейт : 1380 Кбит/сек
Ширина : 704 пикс.
Высота : 400 пикс.
Соотношение сторон : 16:9
Частота кадров : 25,000 кадр/сек
Цветовое пространство : YUV
Подвыборка цветности : 4:2:0
Битовая глубина : 8 бит
Тип развёртки : Прогрессивная
Метод сжатия : С потерями
Бит/(Пиксели*Кадры) : 0.196
Размер потока : 438 Мбайт (91%)
Библиотека кодирования : XviD 1.2.1 (UTC 2008-12-04)

Аудио
Идентификатор : 1
Формат : MPEG Audio
Версия формата : Version 1
Профиль формата : Layer 3
Режим : Joint stereo
Расширение режима : MS Stereo
Идентификатор кодека : 55
Идентификатор кодека/Подсказка : MP3
Продолжительность : 44 м.
Вид битрейта : Постоянный
Битрейт : 128 Кбит/сек
Каналы : 2 канала
Частота : 48,0 КГц
Метод сжатия : С потерями
Размер потока : 40,6 Мбайт (8%)
Выравнивание : Разделение по промежуткам
Продолжительность промежутка : 40 мс. (1,00 видеокадр)
Время предзагрузки промежутка : 500 ms
Все релизы
Скриншоты:


Время раздачи: с 23:00 до 8:30 (до 5 скачавших)

[NNM-Club.ru]_Sekta.2011.SATRip.torrent
 Торрент: Платиновая раздача  Зарегистрирован
 
Скачать


 Зарегистрирован:   10 Сен 2011 16:15:29
 Размер:   1.91 GB  (
 Рейтинг:   4.5 (Голосов: 44)
 Поблагодарили:   222
 Проверка:   Оформление проверено модератором 10 Сен 2011 23:06:22
Как cкачать  ·  Как раздать  ·  Правильно оформить  ·  Поднять ратио!  
Krucha ®
Стаж: 11 лет 7 мес.
Сообщений: 3646
Ratio: 163.335
Поблагодарили: 253865
100%
Откуда: Запорожье
ussr.gif
ВНИМАНИЕ!!! ТОРРЕНТ ПЕРЕЗАЛИТ! ДОБАВЛЕНА 3-4 СЕРИЯ!
ANGELALINA
 
Стаж: 9 лет 9 мес.
Сообщений: 46
Ratio: 4.019
Раздал: 978 GB
Поблагодарили: 104
100%
russia.gif
спасибо большое.мама очень хотела посмотреть. но на работе. вот будет счастлива.спасибки
VICTOR-PVP
Стаж: 9 лет 8 мес.
Сообщений: 134
Ratio: 5.734
100%
russia.gif
Спасибо! Говорят интересный.
tamancha
Стаж: 11 лет 1 мес.
Сообщений: 102
Ratio: 2.418
100%
russia.gif
Снято припоганенько, к сожалению.
Показать сообщения:   
Начать новую тему   Ответить на тему    Торрент-трекер NNM-Club -> Отечественные сериалы Часовой пояс: GMT + 3
Страница 1 из 1