Классический форум-трекер
canvas not supported
Нас вместе: 4 079 087

Бэмби / Bambi (1942) DVDRip [EN]


 
 
RSS
Начать новую тему   Ответить на тему    Торрент-трекер NNM-Club -> Мультфильмы -> Зарубежные Мультфильмы для детей
Автор Сообщение
aleechka ®
Стаж: 8 лет 1 мес.
Сообщений: 4
Ratio: 2,684
Поблагодарили: 221
3.74%
russia.gif
[EN] Бэмби / Bambi (1942) DVDRip
Русское название: Бэмби
Оригинальное название: Bambi
Год выпуска: 1942
Жанр: Рисованная анимация

Перевод: Отсутствует
Язык: Английский



Дата мировой премьеры: 8 августа 1942

Режиссер: Джеймс Элгар, Сэмюэл Армстронг, Дэвид Хэнд...
Персонажи: оленёнок Бэмби, его родители (мать и отец — Великий Князь леса) и друзья

Описание фильма:
Мультфильм о жизни нового Принца леса — оленёнка Бэмби,оставшeгося бeз матepи,котоpую убили охотники. Вместе со своими друзьями ,Бэмби учится жить в лесу,в котоpом бывает опасно и жестоко...

Продолжительность: 01:09:50
Качество видео: DVDRip
Видеокодек: Xvid
Битрейт видео: ~2015kbps
Размер кадра: 960x720
Аудиокодек: AC-3, 6 channels
Битрейт аудио: 448kbps
«Бэмби» номинировался на «Оскар» в трёх категориях — лучшая песня («Love Is A Song»), лучшая музыка и лучший звук, однако, не получил ни одной награды. В год премьеры мультфильм провалился в прокате, но при повторных показах (c 1947 по 1948) начал стремительно набирать популярность и вскоре стал культовым. В 1948 году картина получила премию «Золотой глобус». Также «Бэмби» был самым любимым мультфильмом Уолта Диснея.
General
Complete name : D:\Bambi (1942) and Bambi 2 (2006)\Bambi.avi
Format : AVI
Format/Info : Audio Video Interleave
Format profile : OpenDML
Format settings : rec
File size : 1.20 GiB
Duration : 1h 9mn
Overall bit rate : 2 468 Kbps
Writing application : AVI-Mux GUI 1.17.8.3, Feb 16 201019:42:50

Video
ID : 0
Format : MPEG-4 Visual
Format profile : Advanced Simple@L5
Format settings, BVOP : 1
Format settings, QPel : No
Format settings, GMC : No warppoints
Format settings, Matrix : Default (H.263)
Codec ID : XVID
Codec ID/Hint : XviD
Duration : 1h 9mn
Bit rate : 2 015 Kbps
Width : 960 pixels
Height : 720 pixels
Display aspect ratio : 4:3
Frame rate : 23.976 fps
Color space : YUV
Chroma subsampling : 4:2:0
Bit depth : 8 bits
Scan type : Progressive
Compression mode : Lossy
Bits/(Pixel*Frame) : 0.122
Stream size : 1 006 MiB (82%)
Writing library : XviD 1.2.1 (UTC 2008-12-04)

Audio
ID : 1
Format : AC-3
Format/Info : Audio Coding 3
Mode extension : CM (complete main)
Codec ID : 2000
Duration : 1h 9mn
Bit rate mode : Constant
Bit rate : 448 Kbps
Channel(s) : 6 channels
Channel positions : Front: L C R, Side: L R, LFE
Sampling rate : 48.0 KHz
Bit depth : 16 bits
Compression mode : Lossy
Stream size : 224 MiB (18%)
Alignment : Aligned on interleaves
Interleave, duration : 64 ms (1.53 video frames)
Interleave, preload duration : 192 ms
Title : T2_Audio - 5.1 channels
Скриншоты:

[/URL]


Время раздачи: 24/7 - круглосуточно
[NNM-Club.ru]_Bambi.avi.torrent
 Торрент: Золотая раздача  Зарегистрирован
 
Зарегистрируйтесь и скачайте торрент!
12,4 KB

Примагнититься
 Зарегистрирован:   30 Окт 2011 19:11:00
 Размер:   1,2 GB  (
 Рейтинг:   4,3 (Голосов: 17)
 Поблагодарили:   64
 Проверка:   Оформление проверено модератором 02 Ноя 2011 10:43:01
Как cкачать  ·  Как раздать  ·  Правильно оформить  ·  Поднять ратио!  
Загрузка...
nomad-007
Стаж: 8 лет 3 мес.
Сообщений: 175
Ratio: 13,636
100%
ukraine.gif
Ну, и где раздача?
Показать сообщения:   
Начать новую тему   Ответить на тему    Торрент-трекер NNM-Club -> Мультфильмы -> Зарубежные Мультфильмы для детей Часовой пояс: GMT + 3
Страница 1 из 1