Классический форум-трекер
canvas not supported
Нас вместе: 4 078 939

Медвежонок Винни и его друзья / Winnie the Pooh (2011) [720p] BDRip


 
 
RSS
Начать новую тему   Ответить на тему    Торрент-трекер NNM-Club -> Мультфильмы -> Зарубежные Мультфильмы для детей
Автор Сообщение
andr1525 ®
Покровитель талантов
 
Стаж: 8 лет 11 мес.
Сообщений: 2139
Ratio: 5,708
Поблагодарили: 167437
100%
russia.gif
Медвежонок Винни и его друзья / Winnie the Pooh (2011) BDRip
«Новый горшочек меда для старых друзей»

Русское название: Медвежонок Винни и его друзья
Оригинальное название: Winnie the Pooh
Год выпуска: 2011
Производство: США, Walt Disney Pictures
Жанр: Мультфильм, Мюзикл, Семейный, ...
Перевод: Дублированный
Язык субтитров: Английские
Вид субтитров: Вшитые



Дата мировой премьеры: 6 апреля 2011, ...
Дата российской премьеры: 25 августа 2011, «WDSSPR», ...
Дата выхода DVD релиза: 18 октября 2011, «Уолт Дисней Компани СНГ», ...

Описание:
Когда Ослик Ушастик теряет свой хвост, Филин отправляет друзей (Винни, Тигрулю, Кролика, Хрюню, Кенгу и Крошку Ру) помочь бедолаге найти пропажу, а заодно — спасти Кристофера Робина от таинственного Яскорра. А ведь медвежонок Винни, собирался всего лишь отыскать где-нибудь немного мёда, чтобы слегка подкрепиться, и даже не предполагал, что его ждёт такой суматошный день!

Режиссер: Стивен Дж. Андерсон, Дон Холл
В ролях: Джим Каммингс, Крэйг Фергюсон, Джон Клиз, Том Кенни, Бад Лакки, Трэвис Оутс, Джек Болтер, Кристен Андерсон-Лопес

Продолжительность: 01:03:03
Качество видео: BDRip
Формат: MKV

Видеокодек: MPEG-4 AVC/H.264
Битрейт видео: ~3446 Кбит/сек
Размер кадра: 1280x720
Аудиокодек: MP3 2.0, DTS
Аудио 1: Русский 44,1 КГц; MP3; 2 ch; 320 Кбит/сек
Аудио 2: Английский 48,0 КГц; DTS; 3/2 (L,C,R,l,r) + LFE ch; 1510 Кбит/сек

Общее
Уникальный идентификатор : 206153195128965144661088069828339670352 (0x9B17A941FA6D3ABDB0279BB3E5D19D50)
Полное имя : D:\Medvezhonok.Vinn.i.ego.druzja.BDRip.720p.mkv
Формат : Matroska
Версия формата : Version 2
Размер файла : 2,32 Гбайт
Продолжительность : 1 ч. 3 м.
Общий поток : 5278 Кбит/сек

Видео
Идентификатор : 1
Формат : AVC
Формат/Информация : Advanced Video Codec
Профиль формата : High@L4.1
Параметр CABAC формата : Да
Параметр ReFrames формата : 5 кадров
Идентификатор кодека : V_MPEG4/ISO/AVC
Продолжительность : 1 ч. 3 м.
Битрейт : 3446 Кбит/сек
Ширина : 1280 пикселей
Высота : 720 пикселей
Соотношение сторон : 16:9
Частота кадров : 23,976 кадра/сек
Цветовое пространство : YUV
Субдискретизация насыщенности : 4:2:0
Битовая глубина : 8 бит
Тип развёртки : Прогрессивная
Бит/(Пиксели*Кадры) : 0.156
Размер потока : 1,47 Гбайт (63%)

Аудио #1
Идентификатор : 2
Формат : MPEG Audio
Версия формата : Version 1
Профиль формата : Layer 3
Режим : Joint stereo
Идентификатор кодека : A_MPEG/L3
Идентификатор кодека/Подсказка : MP3
Продолжительность : 1 ч. 3 м.
Вид битрейта : Постоянный
Битрейт : 320 Кбит/сек
Каналы : 2 канала
Частота : 44,1 КГц
Метод сжатия : С потерями
Размер потока : 144 Мбайт (6%)
Заголовок : [DUB] MP3, 2 ch, 320 Кбит/c
Библиотека кодирования : LAME3.98.2
Язык : Russian

Аудио #2
Идентификатор : 3
Формат : DTS
Формат/Информация : Digital Theater Systems
Идентификатор кодека : A_DTS
Продолжительность : 1 ч. 3 м.
Вид битрейта : Постоянный
Битрейт : 1510 Кбит/сек
Каналы : 6 каналов
Расположение каналов : Front: L C R, Side: L R, LFE
Частота : 48,0 КГц
Битовая глубина : 24 бит
Метод сжатия : С потерями
Размер потока : 681 Мбайт (29%)
Заголовок : [Original] DTS, 6 ch, 1510 Кбит/c
Язык : English

Текст
Идентификатор : 4
Формат : UTF-8
Идентификатор кодека : S_TEXT/UTF8
Идентификатор кодека/Информация : UTF-8 Plain Text
Язык : English

Меню
00:00:00.000 : en:00:00:00.000
00:05:31.581 : en:00:05:31.581
00:09:54.511 : en:00:09:54.511
00:16:01.752 : en:00:16:01.752
00:20:23.889 : en:00:20:23.889
00:23:14.184 : en:00:23:14.184
00:26:22.831 : en:00:26:22.831
00:30:09.599 : en:00:30:09.599
00:35:24.164 : en:00:35:24.164
00:41:37.328 : en:00:41:37.328
00:45:47.161 : en:00:45:47.161
00:48:08.928 : en:00:48:08.928
00:51:05.104 : en:00:51:05.104
00:53:36.004 : en:00:53:36.004

Скриншоты:

Время раздачи: С 10.00 до 23.00

[NNM-Club.ru]_Medvezhonok.Vinn.i.ego.druzja.BDRip.720p.mkv.torrent
 Торрент: Платиновая раздача  Зарегистрирован
 
Скачать


Примагнититься
 Зарегистрирован:   20 Окт 2011 09:15:18
 Размер:   2,32 GB  (
 Рейтинг:   4,6 (Голосов: 54)
 Поблагодарили:   173
 Проверка:   Оформление проверено модератором 20 Окт 2011 11:24:46
Как cкачать  ·  Как раздать  ·  Правильно оформить  ·  Поднять ратио!  
Загрузка...
goldpower
Стаж: 8 лет
Сообщений: 6
Ratio: 36,33
Раздал: 236 GB
58.33%
russia.gif
Мульт сам по себе хорош - добрый, поучительный и с юмором. Но обламывает, когда герои как бы попадают в книгу в которой ведется повествование и прыгают по буквам или в них врезаются, а также разговоры автора с героями (может америкосы и балдеют от этого, но для меня это стало большим минусом в этой ленте).

P.S. Хорошо, что не пошел в кинотеатр.

Автору спасибо за старания!
ANNA-NIKA
Стаж: 9 лет 7 мес.
Сообщений: 2
Ratio: 1,94
100%
у меня фильм вверх тормашками идет :(
Показать сообщения:   
Начать новую тему   Ответить на тему    Торрент-трекер NNM-Club -> Мультфильмы -> Зарубежные Мультфильмы для детей Часовой пояс: GMT + 3
Страница 1 из 1