Классический форум-трекер
canvas not supported
Нас вместе: 4 079 205

Куки возвращается / Kuky se vrací (2010) HDRip


 
 
RSS
Начать новую тему   Ответить на тему    Торрент-трекер NNM-Club -> Мультфильмы -> Зарубежные Мультфильмы для детей
Автор Сообщение
andr1525 ®
Покровитель талантов
 
Стаж: 8 лет 11 мес.
Сообщений: 2139
Ratio: 5,708
Поблагодарили: 167444
100%
russia.gif
Куки возвращается / Kuky se vrací (2010) HDRip
Русское название: Куки возвращается
Оригинальное название: Kuky se vrací
Год выпуска: 2010
Студия/Страна: Чехия
Жанр: Мультфильм, Фэнтези



Дата мировой премьеры: 20 мая 2010, ...

Описание:
Любимая игрушка шестилетнего мальчика — медведь по имени Куки. Но у ребенка астма, и старая пыльная шкурка Куки вредна для него, поэтому мама выкидывает игрушку на помойку. Ложась в тот день спать, расстроенный ребенок представляет, как Куки хочет вернуться домой оттуда, где он оказался.

А оказался он в волшебном лесу, населенном странными зверями и созданиями, о существовании которых, живя на полке в комнате хозяина, даже не подозревал. В этом сказочном месте Куки нужно победить страшное зло и стать настоящим героем.

Режиссер: Ян Сверак
Персонажи: Зденек Сверак, Ondrej Sverák, Иржи Махачек, Петр Чтвртничек, Иржи Лабус, Ондржей Ветхи, Иржи Шмицер, Вацлав Постранецки, Мирослав Таборски, Павел Лишка

Продолжительность: 01:36:50
Перевод: Многоголосый закадровый [студия «Омикрон»]

Видеокодек: Xvid
Битрейт видео: ~872 Кбит/сек
Размер кадра: 720 x 304
Качество видео: HDRip
Аудиокодек: AC3 5.1
Битрейт аудио: 128 Кбит/сек

Общее
Полное имя : D:\Kuky se vraci.2010.HDRip.avi
Формат : AVI
Формат/Информация : Audio Video Interleave
Размер файла : 699 Мбайт
Продолжительность : 1 ч. 36 м.
Общий поток : 1009 Кбит/сек
Программа кодирования : VirtualDubModRus 1.5.10.2 (build 2542/release)
Библиотека кодирования : VirtualDubMod build 2542/release

Видео
Идентификатор : 0
Формат : MPEG-4 Visual
Профиль формата : Advanced Simple@L5
Параметр BVOP формата : 2
Параметр QPel формата : Нет
Параметр GMC формата : Без точки перехода
Параметр матрицы формата : Default (H.263)
Режим смешивания : Сжатый битовый поток
Идентификатор кодека : XVID
Идентификатор кодека/Подсказка : XviD
Продолжительность : 1 ч. 36 м.
Битрейт : 872 Кбит/сек
Ширина : 720 пикселей
Высота : 304 пикселя
Соотношение сторон : 2,35:1
Частота кадров : 23,976 кадра/сек
Цветовое пространство : YUV
Субдискретизация насыщенности : 4:2:0
Битовая глубина : 8 бит
Тип развёртки : Прогрессивная
Метод сжатия : С потерями
Бит/(Пиксели*Кадры) : 0.166
Размер потока : 604 Мбайт (86%)
Библиотека кодирования : XviD 64

Аудио
Идентификатор : 1
Формат : AC-3
Формат/Информация : Audio Coding 3
Расширение режима : CM (complete main)
Идентификатор кодека : 2000
Продолжительность : 1 ч. 36 м.
Вид битрейта : Постоянный
Битрейт : 128 Кбит/сек
Каналы : 6 каналов
Расположение каналов : Front: L C R, Side: L R, LFE
Частота : 48,0 КГц
Битовая глубина : 16 бит
Метод сжатия : С потерями
Размер потока : 88,7 Мбайт (13%)
Выравнивание : Разделение по промежуткам
Продолжительность промежутка : 42 мс. (1,00 видеокадр)
Время предзагрузки промежутка : 500 мс.

Скриншоты:



Время раздачи: С 18.00 до 23.00

[NNM-Club.ru]_Kuky se vraci.2010.HDRip.avi.torrent
 Торрент: Золотая раздача  Зарегистрирован
 
Зарегистрируйтесь и скачайте торрент!
14,1 KB
Free Leech
Примагнититься
 Зарегистрирован:   30 Ноя 2011 21:07:14
 Размер:   699 MB  (
 Рейтинг:   4,3 (Голосов: 23)
 Поблагодарили:   54
 Проверка:   Оформление проверено модератором 01 Дек 2011 16:44:45
Как cкачать  ·  Как раздать  ·  Правильно оформить  ·  Поднять ратио!  
sskkaanneerr
Стаж: 9 лет 1 мес.
Сообщений: 3
Ratio: 4,771
2.9%
Откуда: Барнаул
russia.gif
Супермульт!
Старый леший, царь лесной братвы, защищает малыша-медвежонка Куки, а потом они вместе борются со злобным парнем (тоже лешим), который метит на лесной трон.
Смотреть всем детям! (лет с 6)
Показать сообщения:   
Начать новую тему   Ответить на тему    Торрент-трекер NNM-Club -> Мультфильмы -> Зарубежные Мультфильмы для детей Часовой пояс: GMT + 3
Страница 1 из 1