Классический форум-трекер
canvas not supported
Нас вместе: 4 079 073

Герои мультфильмов приходят на помощь / Cartoon All-Stars to the Rescue (1990) VHSRip


 
 
RSS
Начать новую тему   Ответить на тему    Торрент-трекер NNM-Club -> Мультфильмы -> Зарубежные Мультфильмы для детей
Автор Сообщение
algurov ®
Стаж: 9 лет 5 мес.
Сообщений: 170
Ratio: 34,901
Поблагодарили: 6392
100%
Откуда: КУКУЕВО
russia.gif
Герои мультфильмов приходят на помощь / Cartoon All-Stars to the Rescue (1990) VHSRip
Русское название: Герои мультфильмов приходят на помощь
Оригинальное название: Cartoon All-Stars to the Rescue
Год выпуска: 1990
Жанр: Приключения, Семейный, Фэнтези

Перевод: Дублированный


Дата мировой премьеры: 21 апреля 1990

Режиссер: Милтон Грэй, Marsh Lamore, Robert Shellhorn
Персонажи: Багз Банни, Смурфики, Винни Пух, Тигра и др.

Описание фильма:
Отборная Dream-Team команда, составленная из звезд забугорных мультях, наставляет на путь истинный парнишку, который увлекся канабисом и уже готов к переходу на более суровые вещества. Мешает им в этом призрак из дыма (очень противный и мерзкий).Фильм прекрасно озвучен нашими переводчиками — счастье для любителей 90-х.
Общее
Полное имя : D:\PREDATOR I\ВИДЕО\Герои мультфильмов приходят на помощь (1990).avi
Формат : AVI
Формат/Информация : Audio Video Interleave
Размер файла : 343 Мбайт
Продолжительность : 25 м.
Общий поток : 1851 Кбит/сек
Программа кодирования : VirtualDubMod 1.5.10.1 Рус от Stvens Inc.™ www.stvens.amillo.net (build 2439/release)
Библиотека кодирования : VirtualDubMod build 2439/release

Видео
Идентификатор : 0
Формат : MPEG-4 Visual
Профиль формата : Advanced Simple@L5
Параметр BVOP формата : 1
Параметр QPel формата : Нет
Параметр GMC формата : Без точки перехода
Параметр матрицы формата : Default (H.263)
Режим смешивания : Сжатый битовый поток
Идентификатор кодека : XVID
Идентификатор кодека/Подсказка : XviD
Продолжительность : 25 м.
Битрейт : 1713 Кбит/сек
Ширина : 640 пикселей
Высота : 480 пикселей
Соотношение сторон : 4:3
Частота кадров : 25,000 кадров/сек
Цветовое пространство : YUV
Субдискретизация насыщенности : 4:2:0
Битовая глубина : 8 бит
Тип развёртки : Прогрессивная
Метод сжатия : С потерями
Бит/(Пиксели*Кадры) : 0.223
Размер потока : 317 Мбайт (93%)
Библиотека кодирования : XviD 0039 build=2005.09.25 (UTC 2005-09-25)

Аудио
Идентификатор : 1
Формат : MPEG Audio
Версия формата : Version 1
Профиль формата : Layer 3
Режим : Joint stereo
Расширение режима : MS Stereo
Идентификатор кодека : 55
Идентификатор кодека/Подсказка : MP3
Продолжительность : 25 м.
Вид битрейта : Постоянный
Битрейт : 128 Кбит/сек
Каналы : 2 канала
Частота : 48,0 КГц
Метод сжатия : С потерями
Размер потока : 23,7 Мбайт (7%)
Выравнивание : Соединение по промежуткам
Продолжительность промежутка : 40 мс. (1,00 видеокадр)
Время предзагрузки промежутка : 504 мс.
Продолжительность: 00:25:52
Качество видео: VHSRip

Видеокодек: Xvid
Битрейт видео: ~1713 Кбит/сек
Размер кадра: 640x480
Аудиокодек: MP3, 2 канала
Битрейт аудио: 128 Кбит/сек

Скриншоты:




Время раздачи: 22:00-14:00
[NNM-Club.ru]_Geroi mul'tfil'mov prihodyat na pomoshch' (1990).avi.torrent
 Торрент: Платиновая раздача  Зарегистрирован
 
Скачать


Примагнититься
 Зарегистрирован:   10 Дек 2011 16:30:26
 Размер:   343 MB  (
 Рейтинг:   4,6 (Голосов: 25)
 Поблагодарили:   58
 Проверка:   Оформление проверено модератором 10 Дек 2011 19:30:49
Как cкачать  ·  Как раздать  ·  Правильно оформить  ·  Поднять ратио!  
Загрузка...
Показать сообщения:   
Начать новую тему   Ответить на тему    Торрент-трекер NNM-Club -> Мультфильмы -> Зарубежные Мультфильмы для детей Часовой пояс: GMT + 3
Страница 1 из 1