Классический форум-трекер
canvas not supported
Нас вместе: 4 079 086

Волшебство Санта Клауса / The Magic Sack Of Santa Claus (2000) DVDRip


 
 
RSS
Начать новую тему   Ответить на тему    Торрент-трекер NNM-Club -> Мультфильмы -> Зарубежные Мультфильмы для детей
Автор Сообщение
ab5144 ®
Стаж: 8 лет 7 мес.
Сообщений: 2693
Ratio: 101,287
Поблагодарили: 263949
100%
Волшебство Санта Клауса / The Magic Sack Of Santa Claus (2000) DVDRip
Русское название: Волшебство Санта Клауса
Оригинальное название: The Magic Sack Of Santa Claus
Год выпуска: 2000
Страна: США
Студия: Delta Visual Entertainment
Жанр: Детский, Мультфильм
Перевод: Дублированный
Вид субтитров: Отсутствуют

Дата выхода DVD: 25 ноября 2010, «New Dream media»

Режиссер: Джулиан Тарраго / Julian Tarrago
Персонажи: Джеймс Филлипс, Сью Флэк, Белен Рока, Тоби Харпер, Алекс Уорнер

Описание фильма:
Коко, Дрила, и все их друзья готовятся к празднованию Рождества. Но они даже не догадываются, какие замечательные приключения их ожидают в это Рождество

Продолжительность: 00:50:30

Качество видео: DVDRip
Видеокодек: Xvid
Битрейт видео: ~1600 kbps avg, 0.159 bit/pixel
Размер кадра: 700x574, 25 fps
Аудиокодек: AC3, 2 channels
Битрейт аудио: 192.00 kbps avg, 48 KHz
General
Complete name : Volshebstvo.Santa.Klausa.2000.DivX.DVDRip.avi
Format : AVI
Format/Info : Audio Video Interleave
File size : 651 MiB
Duration : 50mn 29s
Overall bit rate : 1 803 Kbps

Video
ID : 0
Format : MPEG-4 Visual
Format profile : Simple@L3
Format settings, BVOP : No
Format settings, QPel : No
Format settings, GMC : No warppoints
Format settings, Matrix : Default (H.263)
Codec ID : XVID
Codec ID/Hint : XviD
Duration : 50mn 29s
Bit rate : 1 600 Kbps
Width : 700 pixels
Height : 574 pixels
Display aspect ratio : 4:3
Frame rate : 25.000 fps
Color space : YUV
Chroma subsampling : 4:2:0
Bit depth : 8 bits
Scan type : Progressive
Compression mode : Lossy
Bits/(Pixel*Frame) : 0.159
Stream size : 578 MiB (89%)
Writing library : XviD 1.1.2 (UTC 2006-11-01)

Audio
ID : 1
Format : AC-3
Format/Info : Audio Coding 3
Mode extension : CM (complete main)
Codec ID : 2000
Duration : 50mn 29s
Bit rate mode : Constant
Bit rate : 192 Kbps
Channel(s) : 2 channels
Channel positions : Front: L R
Sampling rate : 48.0 KHz
Bit depth : 16 bits
Compression mode : Lossy
Stream size : 69.3 MiB (11%)
Alignment : Aligned on interleaves
Interleave, duration : 32 ms (0.80 video frame)
Скриншоты:


Время раздачи: 24/7 до 5 скачавших
[NNM-Club.ru]_Volshebstvo.Santa.Klausa.2000.DVDRip.avi.torrent
 Торрент: Золотая раздача  Зарегистрирован
 
Зарегистрируйтесь и скачайте торрент!
13,1 KB

Примагнититься
 Зарегистрирован:   15 Дек 2011 10:01:07
 Размер:   651 MB  (
 Рейтинг:   4,8 (Голосов: 23)
 Поблагодарили:   80
 Проверка:   Оформление проверено модератором 15 Дек 2011 10:19:19
Как cкачать  ·  Как раздать  ·  Правильно оформить  ·  Поднять ратио!  
viportal
Стаж: 9 лет 2 мес.
Сообщений: 138
Ratio: 13,9
Раздал: 15,76 TB
Поблагодарили: 10603
100%
logo.gif
как мульт?
Показать сообщения:   
Начать новую тему   Ответить на тему    Торрент-трекер NNM-Club -> Мультфильмы -> Зарубежные Мультфильмы для детей Часовой пояс: GMT + 3
Страница 1 из 1