Классический форум-трекер
canvas not supported
Нас вместе: 4 079 450

Рождество Блинки Билла / Blinky Bill's White Christmas (2005) DVDRip


 
 
RSS
Начать новую тему   Ответить на тему    Торрент-трекер NNM-Club -> Мультфильмы -> Зарубежные Мультфильмы для детей
Автор Сообщение
viportal ®
Стаж: 9 лет 3 мес.
Сообщений: 138
Ratio: 13,9
Раздал: 15,76 TB
Поблагодарили: 10604
100%
logo.gif
Рождество Блинки Билла / Blinky Bill's White Christmas (2005) DVDRip
Название: Рождество Блинки Билла
Оригинальное название: Blinky Bill's White Christmas
Год выпуска: 2005
Жанр: Мультфильм
Выпущено: Австралия, EM Entertainment
Описание:
Блинки Билл — это забавный медвежонок-коала из Австралии, который любит попроказничать. Скоро Рождество, и старый и мудрый Вумбо рассказывает Блинки и его друзьям о том, как встречают Рождество в северном полушарии: наряжают елку, лепят снеговиков, дарят подарки.

Блинки с друзьями решают сделать все, чтобы их Рождество было не хуже. Вот только в Австралии елка — большая редкость… Но Блинки с друзьями обязательно придумают выход из этой непростой ситуации и устроят себе самый захватывающий и волшебный праздник.

Режиссер: Гай Гросс
Персонажи: Сара Обри, Робин Мур, Кейт Скотт, Shane Withington

Продолжительность: 01:20:01
Перевод: Профессиональный (многоголосый)



Видеокодек: Xvid
Битрейт видео: ~2141 Кбит/с
Размер кадра: 720x416
Качество видео: DVDRip
Аудиокодек: AC3 2.0
Битрейт аудио: 192 Кбит/с
Формат : AVI
Формат/Информация : Audio Video Interleave
Размер файла : 1,31 Гбайт
Продолжительность : 1 ч. 20 м.
Общий поток : 2338 Кбит/сек
Программа кодирования : VirtualDubMod 1.5.4.1 (build 2178/release)
Библиотека кодирования : VirtualDubMod build 2178/release

Видео
Идентификатор : 0
Формат : MPEG-4 Visual
Профиль формата : Advanced Simple@L5
Параметр BVOP формата : Нет
Параметр QPel формата : Нет
Параметр GMC формата : Без точки перехода
Параметр матрицы формата : Выборочная
Идентификатор кодека : XVID
Идентификатор кодека/Подсказка : XviD
Продолжительность : 1 ч. 20 м.
Битрейт : 2139 Кбит/сек
Ширина : 720 пикселей
Высота : 416 пикселей
Соотношение сторон : 16:9
Частота кадров : 25,000 кадров/сек
Цветовое пространство : YUV
Субдискретизация насыщенности : 4:2:0
Битовая глубина : 8 бит
Тип развёртки : Прогрессивная
Метод сжатия : С потерями
Бит/(Пиксели*Кадры) : 0.286
Размер потока : 1,20 Гбайт (91%)
Библиотека кодирования : XviD 1.2.0.dev47 (UTC 2006-11-01)

Аудио
Идентификатор : 1
Формат : AC-3
Формат/Информация : Audio Coding 3
Расширение режима : CM (complete main)
Идентификатор кодека : 2000
Продолжительность : 1 ч. 20 м.
Вид битрейта : Постоянный
Битрейт : 192 Кбит/сек
Каналы : 2 канала
Расположение каналов : Front: L R
Частота : 48,0 КГц
Битовая глубина : 16 бит
Метод сжатия : С потерями
Размер потока : 110 Мбайт (8%)
Выравнивание : Разделение по промежуткам
Продолжительность промежутка : 96 мс. (2,40 видеокадра)
Время предзагрузки промежутка : 96 мс.
Язык : Russian
Скриншоты:




Время раздачи: 24/7 - круглосуточно

[NNM-Club.ru]_Rozdestvo.Blinki.Billa.2005.XviD.DVDRip.avi.torrent
 Торрент: Золотая раздача  Зарегистрирован
 
Зарегистрируйтесь и скачайте торрент!
13,5 KB

Примагнититься
 Зарегистрирован:   22 Дек 2011 21:27:01
 Размер:   1,31 GB  (
 Рейтинг:   4,7 (Голосов: 20)
 Поблагодарили:   79
 Проверка:   Оформление проверено модератором 22 Дек 2011 22:32:58
Как cкачать  ·  Как раздать  ·  Правильно оформить  ·  Поднять ратио!  
Показать сообщения:   
Начать новую тему   Ответить на тему    Торрент-трекер NNM-Club -> Мультфильмы -> Зарубежные Мультфильмы для детей Часовой пояс: GMT + 3
Страница 1 из 1