Классический форум-трекер
canvas not supported
Нас вместе: 4 079 086

Земляничка: Рождество / Strawberry Shortcake: Berry, Merry Christmas (2003) DVDRip


 
 
RSS
Начать новую тему   Ответить на тему    Торрент-трекер NNM-Club -> Мультфильмы -> Зарубежные Мультфильмы для детей
Автор Сообщение
эксклюзив ®
Стаж: 8 лет 6 мес.
Сообщений: 1169
Ratio: 159,795
Поблагодарили: 75090
100%
Земляничка: Рождество / Strawberry Shortcake: Berry, Merry Christmas (2003) DVDRip
Русское название: Земляничка: Рождество
Оригинальное название: Strawberry Shortcake: Berry, Merry Christmas
Год выпуска: 2003
Жанр: Детский



Перевод: Многоголосый закадровый, профессиональный

Режиссер: Джуди Ротман Ройф

Описание фильма:
Земляничка отправляется в Праздничную страну с пони Медок, чтобы найти подарки для своих друзей. Путешествие на Северный Полюс обернулось визитом к Санте и стало воистину волшебным! Правда, все подарки, которые подготовила Земляничка для своих друзей, намокли, но ведь Рождество - это время чудес, а дороже настоящей дружбы ничего не может быть.

Продолжительность: 00:45:10
Качество видео: DVDRip

Видеокодек: Xvid
Битрейт видео: ~1712 kb/s
Размер кадра: 704x528
Аудиокодек: AC3, 6 ch
Битрейт аудио: 448 kb/s
Общее
Полное имя : G:\Мультфильмы\Земляничка Рождество.2003.XviD.DVDRip.avi
Формат : AVI
Формат/Информация : Audio Video Interleave
Размер файла : 701 Мбайт
Продолжительность : 45 м.
Общий поток : 2169 Кбит/сек
Программа кодирования : VirtualDubMod 1.5.10.2 (build 2540/release)
Библиотека кодирования : VirtualDubMod build 2540/release

Видео
Идентификатор : 0
Формат : MPEG-4 Visual
Профиль формата : Advanced Simple@L5
Параметр BVOP формата : 2
Параметр QPel формата : Нет
Параметр GMC формата : Без точки перехода
Параметр матрицы формата : Default (MPEG)
Идентификатор кодека : XVID
Идентификатор кодека/Подсказка : XviD
Продолжительность : 45 м.
Битрейт : 1712 Кбит/сек
Ширина : 704 пикс.
Высота : 528 пикс.
Соотношение сторон : 4:3
Частота кадров : 25,000 кадр/сек
Цветовое пространство : YUV
Подвыборка цветности : 4:2:0
Битовая глубина : 8 бит
Тип развёртки : Прогрессивная
Метод сжатия : С потерями
Бит/(Пиксели*Кадры) : 0.184
Размер потока : 553 Мбайт (79%)
Библиотека кодирования : XviD 1.2.1 (UTC 2008-12-04)

Аудио
Идентификатор : 1
Формат : AC-3
Формат/Информация : Audio Coding 3
Расширение режима : CM (complete main)
Идентификатор кодека : 2000
Продолжительность : 45 м.
Вид битрейта : Постоянный
Битрейт : 448 Кбит/сек
Канал(ы) : 6 канала(ов)
Расположение каналов : Front: L C R, Side: L R, LFE
Частота : 48,0 КГц
Битовая глубина : 16 бит
Метод сжатия : С потерями
Размер потока : 145 Мбайт (21%)
Выравнивание : Разделение по промежуткам
Продолжительность промежутка : 40 мс. (1,00 видеокадр)
Время предзагрузки промежутка : 500 ms
Скриншоты:


[NNM-Club.ru]_Zemlyanichka Rozhdestvo.2003.XviD.DVDRip.avi.torrent
 Торрент: Золотая раздача  Зарегистрирован
 
Зарегистрируйтесь и скачайте торрент!
14,1 KB

Примагнититься
 Зарегистрирован:   24 Дек 2011 15:04:49
 Размер:   701 MB  (
 Рейтинг:   4,8 (Голосов: 17)
 Поблагодарили:   96
 Проверка:   Оформление проверено модератором 24 Дек 2011 15:28:36
Как cкачать  ·  Как раздать  ·  Правильно оформить  ·  Поднять ратио!  
Загрузка...
svetan
Стаж: 10 лет 1 мес.
Сообщений: 79
Ratio: 16,121
100%
russia.gif
Спасибо! Давно хотела мультики про земляничку для дочки
Показать сообщения:   
Начать новую тему   Ответить на тему    Торрент-трекер NNM-Club -> Мультфильмы -> Зарубежные Мультфильмы для детей Часовой пояс: GMT + 3
Страница 1 из 1