Классический форум-трекер
canvas not supported
Нас вместе: 4 077 823

Братц: Лучшие друзья навсегда / Bratz: Best Friends Forever (2011) DVDRip


 
 
RSS
Начать новую тему   Ответить на тему    Торрент-трекер NNM-Club -> Мультфильмы -> Зарубежные Мультфильмы для детей
Автор Сообщение
stalker67 ®
Покровитель талантов
 
Стаж: 8 лет 11 мес.
Сообщений: 630
Ratio: 98,412
Поблагодарили: 42155
100%
Откуда: K-Ч
russia.gif
Братц: Лучшие друзья навсегда / Bratz: Best Friends Forever (2011) DVDRip
Русское название: Братц: Лучшие друзья навсегда
Оригинальное название: Bratz: Best Friends Forever
Год выпуска: 2011
Жанр: Компьютерная анимация, Детский, Приключения

Перевод: Многоголосый закадровый, профессиональный

Режиссер: Фил Вайнштейн
Персонажи: Хлоя, Саша, Джейд, Ясмин

Описание фильма:
Присоединяйтесь к четырем неразлучным друзьям - Хлое, Саше, Джейд и Ясмин в четырех новых супер-потрясных весёлых сериях! Куколки обнаружат, что если ваш друг растерялся и сбился с пути, только верные друзья помогут обрести уверенность в себе!

Продолжительность: 01:24:38
Качество видео: DVDRip
Сэмпл: Скачать

Видеокодек: Xvid
Видео: MPEG4, XviD, 720x400 (16/9), 29.970 fps, 1 021 Kbps (0.118 bit/pixel)
Аудио: MP3, 48.0 KHz, 2 ch, 128 Kbps, CBR
Общее
Полное имя : F:\Фильмы\Братц Лучшие друзья навсегда\Bratz.Podruzhki.navsegda.2011.P.DVDRip.avi
Формат : AVI
Формат/Информация : Audio Video Interleave
Профиль формата : OpenDML
Настройки формата : rec
Размер файла : 701 Мбайт
Продолжительность : 1 ч. 24 м.
Общий поток : 1158 Кбит/сек
Программа кодирования : AVI-Mux GUI 1.17.7, Aug 8 2006 20:59:17

Видео
Идентификатор : 0
Формат : MPEG-4 Visual
Профиль формата : Advanced Simple@L5
Параметр BVOP формата : 2
Параметр QPel формата : Нет
Параметр GMC формата : Без точки перехода
Параметр матрицы формата : Выборочная
Идентификатор кодека : XVID
Идентификатор кодека/Подсказка : XviD
Продолжительность : 1 ч. 24 м.
Битрейт : 1021 Кбит/сек
Ширина : 720 пикс.
Высота : 400 пикс.
Соотношение сторон : 16:9
Частота кадров : 29,970 кадр/сек
Цветовое пространство : YUV
Подвыборка цветности : 4:2:0
Битовая глубина : 8 бит
Тип развёртки : Прогрессивная
Метод сжатия : С потерями
Бит/(Пиксели*Кадры) : 0.118
Размер потока : 618 Мбайт (88%)
Библиотека кодирования : XviD 58

Аудио
Идентификатор : 1
Формат : MPEG Audio
Версия формата : Version 1
Профиль формата : Layer 3
Режим : Joint stereo
Расширение режима : MS Stereo
Идентификатор кодека : 55
Идентификатор кодека/Подсказка : MP3
Продолжительность : 1 ч. 24 м.
Вид битрейта : Постоянный
Битрейт : 128 Кбит/сек
Каналы : 2 канала
Частота : 48,0 КГц
Метод сжатия : С потерями
Размер потока : 77,5 Мбайт (11%)
Выравнивание : Соединение по промежуткам
Продолжительность промежутка : 24 мс. (0,72 видеокадр)
Время предзагрузки промежутка : 192 ms
Скриншоты:


Время раздачи: с 8:00 до 24:00
[NNM-Club.ru]_Bratz.Podruzhki.navsegda.2011.P.DVDRip.avi.torrent
 Торрент: Золотая раздача  Зарегистрирован
 
Зарегистрируйтесь и скачайте торрент!
14,1 KB

Примагнититься
 Зарегистрирован:   10 Сен 2011 09:23:59
 Размер:   701 MB  (
 Рейтинг:   4,4 (Голосов: 33)
 Поблагодарили:   115
 Проверка:   Оформление проверено модератором 10 Сен 2011 11:39:04
Как cкачать  ·  Как раздать  ·  Правильно оформить  ·  Поднять ратио!  
alex56iv
Стаж: 8 лет 2 мес.
Сообщений: 208
Ratio: 2,426
100%
russia.gif
Спасибо за Братцев, скачал разных 4 для внучки (3кл), посмотрела бегло, сказала "спасибо, но всЁ одинаковое, только слова разные", и выключила.
Наверное хорошо, что здесь cельская местность, общее зомбирование пока только краем достает.
Показать сообщения:   
Начать новую тему   Ответить на тему    Торрент-трекер NNM-Club -> Мультфильмы -> Зарубежные Мультфильмы для детей Часовой пояс: GMT + 3
Страница 1 из 1