Классический форум-трекер
canvas not supported
Нас вместе: 4 079 357

Мальчик, который хотел быть медведем / Drengen der ville gшre det umulige (2002) DVDRip


 
 
RSS
Начать новую тему   Ответить на тему    Торрент-трекер NNM-Club -> Мультфильмы -> Зарубежные Мультфильмы для детей
Автор Сообщение
W.K. ®
Стаж: 8 лет 7 мес.
Сообщений: 637
Ratio: 279,684
Поблагодарили: 23074
100%
ussr.gif
Мальчик, который хотел быть медведем / Drengen der ville gшre det umulige (2002) DVDRip
Русское название: Мальчик, который хотел быть медведем
Оригинальное название: Drengen der ville gшre det umulige
Год выпуска: 2002 . Дания/Франция
Жанр: Детский, Рисованная анимация

Перевод: Многоголосый закадровый, профессиональный
Субтитры: Отдельным файлом, отключаемые, Русские

Дата мировой премьеры: 18 декабря 2002
Дата выхода DVD: 19 ноября 2009, «Новый Диск»

Режиссер: Янник Хаструп.
Персонажи: Марлон Вильструп, Отто Бранденбург, Паприка Стеэн, Энн Клаузен, Томми Кентер, Томас Бо Ларсен, Сидсе Бабетт Кнудсен, Карла Дочерти, Клаус Рискьяр

Описание фильма:
Однажды у полярной медведицы погибает малыш-медвежонок. Медведица готова умереть от горя. В тоже время у одной женщины рождается здоровый крепкий мальчик. Отец-медведь похищает у людей новорожденного и приносит к себе в логово.
Мальчика воспитывает медведица, обучая его всем навыкам необходимым настоящему медведю, чтобы выжить: не простая задача для маленького мальчика. Женщина очень тяжело переживает потерю своего ребенка. Мужчина клянется вернуть малыша и убить медведя. Охота начинается…
Продолжительность: 01:13:55
Качество видео: DVDRip

Видеокодек: Xvid
Битрейт видео: ~1925 Кбит/сек
Размер кадра: 704 х 432
Аудио 1: AC3 5.1, 448 Кбит/сек, Русский
Аудио 2: AC3 5.1, 448 Кбит/сек, Французский
Общее
Полное имя : D:\Downloads\The.Boy.Who.Wanted.To.Be.A.Bear.2002\The.Boy.Who.Wanted.To.Be.A.Bear.avi
Формат : AVI
Формат/Информация : Audio Video Interleave
Размер файла : 1,46 Гбайт
Продолжительность : 1 ч. 13 м.
Общий поток : 2835 Кбит/сек
Программа кодирования : VirtualDubMod 1.5.10.2 (build 2540/release)
Библиотека кодирования : VirtualDubMod build 2540/release

Видео
Идентификатор : 0
Формат : MPEG-4 Visual
Профиль формата : Advanced Simple@L5
Параметр BVOP формата : 1
Параметр QPel формата : Нет
Параметр GMC формата : Без точки перехода
Параметр матрицы формата : Выборочная
Идентификатор кодека : XVID
Идентификатор кодека/Подсказка : XviD
Продолжительность : 1 ч. 13 м.
Битрейт : 1925 Кбит/сек
Ширина : 704 пикс.
Высота : 432 пикс.
Соотношение сторон : 1,630
Частота кадров : 25,000 кадр/сек
Цветовое пространство : YUV
Подвыборка цветности : 4:2:0
Битовая глубина : 8 бит
Тип развёртки : Прогрессивная
Метод сжатия : С потерями
Бит/(Пиксели*Кадры) : 0.253
Размер потока : 1018 Мбайт (68%)
Библиотека кодирования : XviD 63

Аудио #1
Идентификатор : 1
Формат : AC-3
Формат/Информация : Audio Coding 3
Расширение режима : CM (complete main)
Идентификатор кодека : 2000
Продолжительность : 1 ч. 13 м.
Вид битрейта : Постоянный
Битрейт : 448 Кбит/сек
Каналы : 6 каналов
Расположение каналов : Front: L C R, Side: L R, LFE
Частота : 48,0 КГц
Битовая глубина : 16 бит
Метод сжатия : С потерями
Размер потока : 237 Мбайт (16%)
Выравнивание : Разделение по промежуткам
Продолжительность промежутка : 40 мс. (1,00 видеокадр)
Время предзагрузки промежутка : 500 ms

Аудио #2
Идентификатор : 2
Формат : AC-3
Формат/Информация : Audio Coding 3
Расширение режима : CM (complete main)
Идентификатор кодека : 2000
Продолжительность : 1 ч. 13 м.
Вид битрейта : Постоянный
Битрейт : 448 Кбит/сек
Каналы : 6 каналов
Расположение каналов : Front: L C R, Side: L R, LFE
Частота : 48,0 КГц
Битовая глубина : 16 бит
Метод сжатия : С потерями
Размер потока : 237 Мбайт (16%)
Выравнивание : Разделение по промежуткам
Продолжительность промежутка : 40 мс. (1,00 видеокадр)
Время предзагрузки промежутка : 500 ms

Общее
Полное имя : D:\Downloads\The.Boy.Who.Wanted.To.Be.A.Bear.2002\The.Boy.Who.Wanted.To.Be.A.Bear.srt
Размер файла : 89,1 Кбайт




Время раздачи: с 23:00 до 07:00, днем по мере возможности
Приятного просмотра! :пока:
[NNM-Club.ru]_The.Boy.Who.Wanted.To.Be.A.Bear.2002.torrent
 Торрент: Платиновая раздача  Зарегистрирован
 
Скачать


Примагнититься
 Зарегистрирован:   10 Янв 2012 23:48:23
 Размер:   1,46 GB  (
 Рейтинг:    (Голосов: 9)
 Поблагодарили:   32
 Проверка:   Оформление проверено модератором 10 Янв 2012 23:50:04
Как cкачать  ·  Как раздать  ·  Правильно оформить  ·  Поднять ратио!  

_________________
NickHeidfeld
Стаж: 9 лет 7 мес.
Сообщений: 368
Ratio: 31,872
100%
russia.gif
Это про тандем?

_________________
Архисверхчеловеконенавистничество пока чуждо для меня...
W.K. ®
Стаж: 8 лет 7 мес.
Сообщений: 637
Ratio: 279,684
Поблагодарили: 23074
100%
ussr.gif
NickHeidfeld писал(а): Перейти к сообщению
Это про тандем?

Это про мальчика, который хотел быть медведем. Смотрите описание или хотя бы конкретизируйте вопрос...

_________________
Показать сообщения:   
Начать новую тему   Ответить на тему    Торрент-трекер NNM-Club -> Мультфильмы -> Зарубежные Мультфильмы для детей Часовой пояс: GMT + 3
Страница 1 из 1