Классический форум-трекер
canvas not supported
Нас вместе: 4 079 349

Симсала Гримм: Мальчик-с-пальчик. Пастушка у колодца / Tom Thumb. The two Princesses (2000) DVDRip


 
 
RSS
Начать новую тему   Ответить на тему    Торрент-трекер NNM-Club -> Мультфильмы -> Зарубежные Мультфильмы для детей
Автор Сообщение
Алеся ®
Стаж: 9 лет 2 мес.
Сообщений: 154
Ratio: 111,762
Раздал: 212 GB
Поблагодарили: 5881
100%
ussr.gif
Симсала Гримм: Мальчик-с-пальчик. Пастушка у колодца / Tom Thumb. The two Princesses (2000) DVDRip
Русское название: Симсала Гримм: Мальчик-с-пальчик. Пастушка у колодца
Оригинальное название: Tom Thumb. The two Princesses
Год выпуска: 2000
Жанр: Детский, Рисованная анимация

Перевод: Многоголосый закадровый, профессиональный

Режиссер: Крис Дойл / Chris Doyle

Описание фильма:
Мультипликационный сериал "Симсала Гримм" рассказывает о путешествии двух друзей - недотепы Йо-Йо и знатока сказок Крока, с помощью волшебной книги, в мир сказок братьев Гримм. Эти сказки самобытны, сюжет их знаком наизусть и безо всяких дополнений бесценен и поучителен. Ведь сказка ложь, да в ней намек...

Продолжительность: 00:46:29

Качество видео: DVDRip
Видео: MPEG4, DivX 4, 512x416 (5:4), 25.000 fps, 1 892 Kbps (0.355 bit/pixel)
Аудио: MP3, 44.1 KHz, 2 ch, 136 Kbps, VBR
Полное имя: D:\Мои видеозаписи\Черновики\Simsala\Simsala.Grimm.Malchik.s.Palchik.Pastushka.u.kolodza.avi
Формат: AVI
Формат/Информация: Audio Video Interleave
Размер файла: 678 Мбайт
Продолжительность: 46 м.
Режим общего битрейта: Переменный
Общий поток: 2039 Кбит/сек
Программа кодирования: Nandub v0.28
Библиотека кодирования: Nandub build 1757/release

Видео
Идентификатор: 0
Формат: MPEG-4 Visual
Параметр BVOP формата: Да
Параметр QPel формата: Нет
Параметр GMC формата: Без точки перехода
Параметр матрицы формата: Default (H.263)
Идентификатор кодека: DIVX
Идентификатор кодека/Информация: Project Mayo
Идентификатор кодека/Подсказка: DivX 4
Продолжительность: 46 м.
Битрейт: 1892 Кбит/сек
Ширина: 512 пикселей
Высота: 416 пикселей
Соотношение сторон: 5:4
Частота кадров: 25,000 кадров/сек
Цветовое пространство: YUV
Субдискретизация насыщенности: 4:2:0
Битовая глубина: 8 бит
Тип развёртки: Прогрессивная
Метод сжатия: С потерями
Бит/(Пиксели*Кадры): 0.355
Размер потока: 629 Мбайт (93%)

Аудио
Идентификатор: 1
Формат: MPEG Audio
Версия формата: Version 1
Профиль формата: Layer 3
Идентификатор кодека: 55
Идентификатор кодека/Подсказка: MP3
Продолжительность: 46 м.
Вид битрейта: Переменный
Битрейт: 136 Кбит/сек
Каналы: 2 канала
Частота: 44,1 КГц
Метод сжатия: С потерями
Размер потока: 44,6 Мбайт (7%)
Выравнивание: Соединение по промежуткам
Продолжительность промежутка: 26 мс. (0,65 видеокадр)
Время предзагрузки промежутка: 523 мс.
Библиотека кодирования: LAME3.93
Настройки программы: -m s -V 4 -q 2 -lowpass 14.6 --abr 136
Скриншоты:


Время раздачи: С 10:00 до 20:00 (по возможности)
[NNM-Club.ru]_Simsala.Grimm.Malchik.s.Palchik.Pastushka.u.kolodza.avi.torrent
 Торрент: Платиновая раздача  Зарегистрирован
 
Скачать


Примагнититься
 Зарегистрирован:   15 Янв 2012 18:23:16
 Размер:   678 MB  (
 Рейтинг:   4,3 (Голосов: 17)
 Поблагодарили:   60
 Проверка:   Оформление проверено модератором 15 Янв 2012 19:46:35
Как cкачать  ·  Как раздать  ·  Правильно оформить  ·  Поднять ратио!  
Показать сообщения:   
Начать новую тему   Ответить на тему    Торрент-трекер NNM-Club -> Мультфильмы -> Зарубежные Мультфильмы для детей Часовой пояс: GMT + 3
Страница 1 из 1