Классический форум-трекер
canvas not supported
Нас вместе: 4 077 807

Моя первая библия / The Beginner's Bible (1-11 серии) (1995-1998) VHSRip


 
 
RSS
Начать новую тему   Эта тема закрыта, вы не можете писать ответы и редактировать сообщения.    Торрент-трекер NNM-Club -> Мультфильмы -> Зарубежные Мультфильмы для детей
Автор Сообщение
alexanechka ®
Стаж: 8 лет
Сообщений: 14
Ratio: 10,06
Поблагодарили: 879
65.79%
russia.gif
Моя первая библия (1-11 серии) / The Beginner's Bible (1995-1998) VHSRip
Русское название: Моя первая библия
Оригинальное название: The Beginner's Bible
Год выпуска: 1995-1998
Производство: Jumbo Pictures Inc., Time Life Kids, Sony Wonder, Sony Music Entertainment, Time-Life Video & Television - США
Жанр: Детский, Обучающий, Анимационный

Перевод: Многоголосый закадровый, профессиональный
Режиссер: Жан-Пьер Жаке
Участники: библейские истории

Описание фильма:
понятные и интересные библейские истории, рассказанные занимательными мультиками. здесь представлены самы великие и известные истории, которые познакомят детей с Вечной книгой. Библейские истории о мужестве и вере, над которыми не властно время, в доступной форме познакомят малышей с сутью моральных ценностей, с вечными истинами и нравственностью.



Продолжительность: 11х~ 00:25:49
Качество видео: VHSRip

Видеокодек: DivX 5
Битрейт видео: 901 kbps
Размер кадра: 640 x 480
Аудиокодек: MP3, 1 канал
Битрейт аудио: 64 kbps
Формат : DivX
Формат/Информация : Hack of AVI
Размер файла : 178 Мбайт
Продолжительность : 25 м.
Общий поток : 975 Кбит/сек

Видео
Идентификатор : 0
Формат : MPEG-4 Visual
Параметр BVOP формата : 1
Параметр QPel формата : Нет
Параметр GMC формата : Без точки перехода
Параметр матрицы формата : Default (H.263)
Режим смешивания : Сжатый битовый поток
Идентификатор кодека : DX50
Идентификатор кодека/Подсказка : DivX 5
Продолжительность : 25 м.
Битрейт : 901 Кбит/сек
Ширина : 640 пикселей
Высота : 480 пикселей
Соотношение сторон : 4:3
Частота кадров : 25,000 кадров/сек
Цветовое пространство : YUV
Субдискретизация насыщенности : 4:2:0
Битовая глубина : 8 бит
Тип развёртки : Прогрессивная
Метод сжатия : С потерями
Бит/(Пиксели*Кадры) : 0.117
Размер потока : 165 Мбайт (92%)
Заголовок : Main
Библиотека кодирования : DivX 6.5.1 (UTC 2007-03)

Аудио
Идентификатор : 1
Формат : MPEG Audio
Версия формата : Version 1
Профиль формата : Layer 3
Идентификатор кодека : 55
Идентификатор кодека/Подсказка : MP3
Продолжительность : 25 м.
Вид битрейта : Постоянный
Битрейт : 64,0 Кбит/сек
Каналы : 1 канал
Частота : 48,0 КГц
Метод сжатия : С потерями
Размер потока : 11,7 Мбайт (7%)
Выравнивание : Разделение по промежуткам
Продолжительность промежутка : 40 мс. (1,00 видеокадр)
Время предзагрузки промежутка : 500 мс.
Заголовок : Audio
01. Иосиф и его братья
02. Моисей
03. Иисус Навин и Иерихонская битва
04. Давид и Голиаф
06. Иона и кит
05. Даниил
07. Рождество
08. Иисус и Его чудеса
09. Добрый Самаритянин
10. Блудный сын
11. Пасха
Скриншоты:


Время раздачи: 24/7
[NNM-Club.ru]_moya pervaya Bibliya.torrent
 Торрент: Платиновая раздача  Зарегистрирован
 
Скачать


 Зарегистрирован:   17 Янв 2012 08:28:16
 Размер:   1,95 GB  (
 Рейтинг:   4,4 (Голосов: 19)
 Поблагодарили:   71
 Проверка:   Оформление проверено модератором 20 Янв 2012 23:26:29
Как cкачать  ·  Как раздать  ·  Правильно оформить  ·  Поднять ратио!  
Показать сообщения:   
Начать новую тему   Эта тема закрыта, вы не можете писать ответы и редактировать сообщения.    Торрент-трекер NNM-Club -> Мультфильмы -> Зарубежные Мультфильмы для детей Часовой пояс: GMT + 3
Страница 1 из 1