Классический форум-трекер
canvas not supported
Нас вместе: 4 076 625

Приключения Буратино (1975) DVD9


 
 
RSS
Начать новую тему   Ответить на тему    Торрент-трекер NNM-Club -> Видео -> Отечественные Фильмы для детей
Автор Сообщение
almikl ®
Куратор Детского.
Модератор Видео.
RG Всё лучшее - детям!
Uploader 500+
 
Стаж: 12 лет 2 мес.
Сообщений: 4658
Ratio: 328,35
Поблагодарили: 104081
100%
Откуда: Дааалекое Подмосковье
russia.gif
Приключения Буратино (1975) DVD9
Жанр: Комедия, Приключения, Семейный

Режиссер: Леонид Нечаев
Актеры: Дмитрий Иосифов (Буратино), Татьяна Проценко (Мальвина), Роман Столкарц (Пьеро), Томас Аугустинас (Артемон), Григорий Светлорусов (Арлекин), Николай Гринько (Папа Карло), Юрий Катин-Ярцев (Джузеппе - Сизый нос), Рина Зеленая (Черепаха Тортила), Владимир Этуш (Карабас-Барабас), Ролан Быков (Кот Базилио), Елена Санаева (Лиса Алиса), Владимир Басов (Дуремар)

Описание:
По мотивам сказки А.Н. Толстого «Золотой ключик, или приключения Буратино».
Старый мастер Джузеппе вырезал из дерева забавного мальчика и назвал его Буратино. Деревянный мальчик ожил, но прежде чем он станет настоящим человеком, ему предстоит пройти через множество испытаний и приключений. Доброта, смелость и находчивость помогут Буратино победить жестокость и алчность, найти бескорыстных и верных друзей.
Музыка и песни Алексея Рыбникова на стихи Булата Окуджавы и Юрия Энтина.

Продолжительность: 01:05:06 + 01:07:53

Дополнительно: Интервью с Леонидом Нечаевым, Создатели и исполнители, CP Digital для детей, Каталог.
Субтитры: нет
Меню: Анимированное



Видеокодек: MPEG-2
Битрейт видео: ~6 111 Kbps
Размер кадра: 720х480
Качество видео: DVD9
Аудиокодек: AC3 5.1
Битрейт аудио: 448 Kbps
General
Complete name : F:\Priklyucheniya.Buratino.(2.serii.iz.2).1975.DVD-9\VIDEO_TS\VTS_04_1.VOB
Format : MPEG-PS
File size : 1 024 MiB
Duration : 20mn 15s
Overall bit rate : 7 064 Kbps
Video #224
ID : 224 (0xE0)
Format : MPEG Video
Format version : Version 2
Format profile : Main@Main
Format settings, BVOP : Yes
Format settings, Matrix : Default
Duration : 20mn 15s
Bit rate mode : Variable
Bit rate : 6 111 Kbps
Width : 720 pixels
Height : 480 pixels
Display aspect ratio : 4:3
Frame rate : 29.970 fps
Standard : NTSC
Resolution : 8 bits
Colorimetry : 4:2:0
Bits/(Pixel*Frame) : 0.590
Stream size : 886 MiB (87%)
Audio #128
ID : 128 (0x80)
Format : AC-3
Format/Info : Audio Coding 3
Duration : 20mn 15s
Bit rate mode : Constant
Bit rate : 448 Kbps
Channel(s) : 6 channels
Channel positions : Front: L C R, Surround: L R, LFE
Sampling rate : 48.0 KHz
Stream size : 64.9 MiB (6%)
Audio #129
ID : 129 (0x81)
Format : AC-3
Format/Info : Audio Coding 3
Duration : 20mn 15s
Bit rate mode : Constant
Bit rate : 224 Kbps
Channel(s) : 2 channels
Channel positions : L R
Sampling rate : 48.0 KHz
Stream size : 32.5 MiB (3%)
Title:
Size: 7.40 Gb ( 7 759 628 KBytes ) - DVD-9
Enabled regions: 1, 2, 3, 4, 5, 6, 7, 8

VTS_01 :
Play Length: 00:00:10
Video: NTSC 4:3 (720x480) VBR

VTS_02 :
Play Length: 00:00:11
Video: NTSC 4:3 (720x480) VBR
Audio:
Russian (Dolby AC3, 6 ch)

VTS_03 :
Play Length: 01:05:06
Video: NTSC 4:3 (720x480) VBR
Audio:
Russian (Dolby AC3, 6 ch)
Russian (Dolby AC3, 2 ch)

VTS_04 :
Play Length: 01:07:53
Video: NTSC 4:3 (720x480) VBR
Audio:
Russian (Dolby AC3, 6 ch)
Russian (Dolby AC3, 2 ch)

VTS_05 :
Play Length: 00:00:10
Video: NTSC 4:3 (720x480) VBR
Audio:
Russian (Dolby AC3, 2 ch)

VTS_06 :
Play Length: 00:00:10
Video: NTSC 4:3 (720x480) VBR

VTS_07 :
Play Length: 00:02:37
Video: NTSC 4:3 (720x480) VBR
Audio:
Russian (Dolby AC3, 2 ch)

VTS_08 :
Play Length: 00:10:25
Video: NTSC 4:3 (720x480) VBR
Audio:
English (Dolby AC3, 2 ch)

Menu Video:
NTSC 4:3 (720x480) VBR
Menu Subtitles:
Not specified
Menu English Language Unit :
Root Menu
Скриншоты:


Время раздачи: 24/7, до 5 скачавших
Priklyucheniya.Buratino.(2.serii.iz.2).1975.DVD-9_[NNM-Club].torrent
 Торрент: Платиновая раздача  Зарегистрирован
 
Скачать


Примагнититься
 Зарегистрирован:   24 Ноя 2011 13:30:56
 Размер:   7,4 GB  (
 Рейтинг:   4,7 (Голосов: 56)
 Поблагодарили:   245
 Проверка:   Оформление проверено модератором 24 Ноя 2011 13:53:58
Как cкачать  ·  Как раздать  ·  Правильно оформить  ·  Поднять ратио!  
almikl ®
Куратор Детского.
Модератор Видео.
RG Всё лучшее - детям!
Uploader 500+
 
Стаж: 12 лет 2 мес.
Сообщений: 4658
Ratio: 328,35
Поблагодарили: 104081
100%
Откуда: Дааалекое Подмосковье
russia.gif
Все раздачи Приключения Буратино 1975 на NNM-CLUB
CasioRU
Стаж: 9 лет 3 мес.
Сообщений: 132
Ratio: 12,138
Раздал: 9,132 TB
Поблагодарили: 300
Откуда: Екатеринбург
russia.gif
даешь 1080p!!!!
almikl ®
Куратор Детского.
Модератор Видео.
RG Всё лучшее - детям!
Uploader 500+
 
Стаж: 12 лет 2 мес.
Сообщений: 4658
Ratio: 328,35
Поблагодарили: 104081
100%
Откуда: Дааалекое Подмосковье
russia.gif
CasioRU писал(а):
даешь 1080p!!!!

откуда? даже реставрации не ждите, права на фильм у белорусов, так что в пролете.. думаю что ДВД это максимальное качество :огорчение:
kolman
Стаж: 8 лет 11 мес.
Сообщений: 281
Ratio: 1,341
100%
Откуда: Бельцы
moldova.gif
Спасибо! Моей дочери 7 лет, а смотрит с удовольствием, фильм моего детства!!!
Показать сообщения:   
Начать новую тему   Ответить на тему    Торрент-трекер NNM-Club -> Видео -> Отечественные Фильмы для детей Часовой пояс: GMT + 3
Страница 1 из 1