Классический форум-трекер
canvas not supported
Нас вместе: 4 079 126

Кевин в стране Драконов / Dragon Hill / La Colina Del Dragon (2002) DVDRip


 
 
RSS
Начать новую тему   Ответить на тему    Торрент-трекер NNM-Club -> Мультфильмы -> Зарубежные Мультфильмы для детей
Автор Сообщение
W.K. ®
Стаж: 8 лет 7 мес.
Сообщений: 637
Ratio: 279,684
Поблагодарили: 23074
100%
ussr.gif
Кевин в стране Драконов / Dragon Hill / La Colina Del Dragon (2002) DVDRip
Русское название: Кевин в стране Драконов
Оригинальное название: Dragon Hill / La Colina Del Dragon
Год выпуска: 2002 .
Жанр: Приключения, Фэнтези, Семейный

Перевод: Дублированный

Дата мировой премьеры: 20 декабря 2002
Дата российской премьеры: 25 декабря 2003, «Люксор»
Дата выхода DVD релиза: 14 мая 2009, «Мистерия Звука»
Режиссер: Анхель Изкуэрдо
Персонажи: Роберт Паттерсон, Сью Флэк, Joshua Zamrycki, Amber Ockrassa
Описание фильма:
История о жизни в Стране Драконов, которая существует в параллельном, невидимом мире среди живописных скал и бурных водопадов. Двери Страны Драконов всегда открыты для людей, готовых поверить в чудо, в ком еще не угасли дух приключений, жажда великих подвигов и гениальных открытий. Но даже здесь, в самом сердце этой солнечной земли, притаилось зло и коварство. Колдун Септимус, заточенный в этом месте за свои злодеяния, стремится вернуться в мир людей и покорить его, захватив несметные сокровища Страны Драконов. Он не остановится ни перед чем, чтобы воплотить свой безумный план. Кевин, случайно оказавшийся в Стране Драконов, попадает в стремительный водоворот событий. И только великая сила дружбы людей и драконов, их смелость и смекалка, помогут остановить зло…
Продолжительность: 01:13:45
Качество видео: DVDRip

Видеокодек: Xvid
Битрейт видео: ~2380 Кбит/сек
Размер кадра: 704 x 400, (16:9)
Аудиокодек: AC3 5.1
Битрейт аудио: 384 Кбит/сек
Общее
Полное имя : D:\Downloads\Kevin.v.strane.drakonov.2002.D.DVDRip.avi
Формат : AVI
Формат/Информация : Audio Video Interleave
Размер файла : 1,43 Гбайт
Продолжительность : 1 ч. 13 м.
Общий поток : 2774 Кбит/сек
Программа кодирования : VirtualDubMod 1.5.10.3 (build 2550/release)
Библиотека кодирования : VirtualDubMod build 2550/release

Видео
Идентификатор : 0
Формат : MPEG-4 Visual
Профиль формата : Advanced Simple@L5
Параметр BVOP формата : 1
Параметр QPel формата : Нет
Параметр GMC формата : Без точки перехода
Параметр матрицы формата : Выборочная
Идентификатор кодека : XVID
Идентификатор кодека/Подсказка : XviD
Продолжительность : 1 ч. 13 м.
Битрейт : 2380 Кбит/сек
Ширина : 704 пикс.
Высота : 400 пикс.
Соотношение сторон : 16:9
Частота кадров : 25,000 кадр/сек
Цветовое пространство : YUV
Подвыборка цветности : 4:2:0
Битовая глубина : 8 бит
Тип развёртки : Прогрессивная
Метод сжатия : С потерями
Бит/(Пиксели*Кадры) : 0.338
Размер потока : 1,23 Гбайт (86%)
Библиотека кодирования : XviD 64

Аудио
Идентификатор : 1
Формат : AC-3
Формат/Информация : Audio Coding 3
Расширение режима : CM (complete main)
Идентификатор кодека : 2000
Продолжительность : 1 ч. 13 м.
Вид битрейта : Постоянный
Битрейт : 384 Кбит/сек
Каналы : 6 каналов
Расположение каналов : Front: L C R, Side: L R, LFE
Частота : 48,0 КГц
Битовая глубина : 16 бит
Метод сжатия : С потерями
Размер потока : 203 Мбайт (14%)
Выравнивание : Разделение по промежуткам
Продолжительность промежутка : 40 мс. (1,00 видеокадр)
Время предзагрузки промежутка : 500 ms



Время раздачи: с 23:00 до 07:00, днем по мере возможности
Приятного просмотра! :пока:
Следующая часть: Кевин в Стране Драконов: Магический Куб / El cubo mágico / The Magic Cube (2006) DVDRip
[NNM-Club.ru]_Kevin.v.strane.drakonov.2002.D.DVDRip.avi.torrent
 Торрент: Платиновая раздача  Зарегистрирован
 
Скачать


Примагнититься
 Зарегистрирован:   20 Янв 2012 15:06:57
 Размер:   1,43 GB  (
 Рейтинг:   4,8 (Голосов: 20)
 Поблагодарили:   95
 Проверка:   Оформление проверено модератором 20 Янв 2012 15:18:55
Как cкачать  ·  Как раздать  ·  Правильно оформить  ·  Поднять ратио!  

_________________
Показать сообщения:   
Начать новую тему   Ответить на тему    Торрент-трекер NNM-Club -> Мультфильмы -> Зарубежные Мультфильмы для детей Часовой пояс: GMT + 3
Страница 1 из 1